<?xml version="1.0" standalone="no"?>
<!DOCTYPE svg PUBLIC "-//W3C//DTD SVG 1.1//EN" "http://www.w3.org/Graphics/SVG/1.1/DTD/svg11.dtd" >
<svg xmlns="http://www.w3.org/2000/svg">
<metadata>
This is a custom SVG webfont generated by Font Squirrel.
Copyright   : This font drawn by, and copyright, Ben Weiner, 1999-2001. Modifications for version 2.0 copyright Ben Weiner, 2006-7. Licensed under the Open Font License (http://scripts.sil.org/OFL). See accompanying license and FONTLOG.
</metadata>
<defs>
<font id="webfont" horiz-adv-x="536" >
<font-face units-per-em="1000" ascent="800" descent="-200" />
<missing-glyph horiz-adv-x="273" />
<glyph unicode=" "  horiz-adv-x="273" />
<glyph unicode="&#x09;" horiz-adv-x="273" />
<glyph unicode="&#xa0;" horiz-adv-x="273" />
<glyph unicode="!" horiz-adv-x="235" d="M145 192h-85l54 514h85zM75 -13q-23 0 -38 16.5t-12 40.5q2 24 20.5 41t41.5 17q25 0 40 -17t13 -41q-3 -24 -21.5 -40.5t-43.5 -16.5z" />
<glyph unicode="&#x22;" horiz-adv-x="329" d="M269 681q-48 0 -54 -56q-2 -22 7 -74.5t19 -75.5h14q16 25 35 78q18 50 20 72q6 56 -41 56zM127 681q-47 0 -53 -56q-2 -22 6.5 -74.5t19.5 -75.5h13q16 25 35 78q18 50 20 72q6 56 -41 56z" />
<glyph unicode="#" d="M452 560l-81 -9l-8 -78l80 8l-6 -52l-80 -8l-11 -97l-57 -6l11 97l-81 -9l-11 -97l-58 -6l11 97l-103 -11l6 52l103 11l8 79l-102 -11l6 52l103 11l8 75l57 6l-9 -75l82 8l8 75l59 8l-10 -77l81 9zM233 537l-9 -79l81 9l9 78z" />
<glyph unicode="$" d="M282 -6l-10 -94h-89l10 91q-100 14 -140 78l54 62q50 -67 132 -67q46 0 80.5 27t38.5 76q5 48 -39 75q-13 8 -85 35q-58 22 -85 47q-38 37 -38 98q0 13 1 26q6 56 48 99q40 40 97 54l10 89h89l-9 -86q60 -11 113 -59l-50 -58q-50 47 -110 47q-89 0 -98 -91q-6 -53 83 -84 t117 -54q43 -35 43 -104q0 -15 -1 -32q-15 -145 -162 -175z" />
<glyph unicode="%" d="M142 410q-43 0 -69 25.5t-26 75.5q0 9 1 20q5 52 39 85.5t81 33.5q46 0 73 -33.5t22 -85.5q-6 -59 -39.5 -90t-81.5 -31zM68 -78l-71 25l449 681l66 -26zM370 -2q-98 0 -98 102q0 11 2 22q5 53 40 87.5t83 34.5q46 0 73.5 -34.5t22.5 -87.5q-7 -61 -40.5 -92.5 t-82.5 -31.5zM161 594q-16 0 -31 -15q-18 -18 -21 -51q-4 -33 11 -50q11 -14 28 -14t31 14q18 17 22 50q3 33 -12 51q-12 15 -28 15zM389 186q-16 0 -31 -15q-18 -19 -22 -53q-3 -34 12 -51q11 -13 28 -13t31 13q19 18 22 51q4 34 -11 53q-12 15 -29 15z" />
<glyph unicode="&#x26;" horiz-adv-x="555" d="M175 307q-83 -44 -92 -129q-5 -49 23 -81q30 -36 89 -36q66 0 117 57q-99 114 -137 189zM446 4q-38 13 -88 62q-82 -75 -165 -75q-91 0 -140 47q-45 43 -45 111q0 64 40 123q39 56 99 87q-39 62 -32 125q7 67 59 111.5t117 44.5q84 0 143 -72l-52 -48q-40 56 -104 56 q-74 0 -83 -77q-4 -45 19 -104q56 22 114 24l8 -61q-53 0 -89 -16q66 -109 112 -160q19 50 21 70q3 23 -3 63l71 6q4 -102 -36 -192q23 -30 87 -63z" />
<glyph unicode="'" horiz-adv-x="194" d="M120 683q-48 0 -54 -56q-2 -24 8 -77q11 -57 25 -75q19 27 38.5 76t22.5 76q6 56 -40 56z" />
<glyph unicode="(" horiz-adv-x="318" d="M125 -138q-84 177 -84 374q0 141 49 287q48 142 133 260l60 -30q-130 -242 -150 -430q-5 -44 -5 -86q0 -83 20 -173q10 -46 46 -172z" />
<glyph unicode=")" horiz-adv-x="316" d="M96 -138l-64 30q78 156 98 206q44 109 56 221q4 43 4 86q0 156 -63 348l67 30q80 -160 80 -361q0 -300 -178 -560z" />
<glyph unicode="*" horiz-adv-x="275" d="M219 475l-66 60l4 -89h-47l3 89l-66 -60l-27 44l81 50l-80 51l26 44l68 -61l-4 90l47 -1l-5 -89l66 61l25 -44l-77 -50l78 -51z" />
<glyph unicode="+" horiz-adv-x="498" d="M279 282v-186h-61v186h-165v63h165v176h61v-176h167v-63h-167z" />
<glyph unicode="," horiz-adv-x="254" d="M55 -72l43 -12q104 119 114 204h-97q-5 -44 -26 -108q-19 -59 -34 -84z" />
<glyph unicode="-" horiz-adv-x="380" d="M50 267v93h280v-93h-280z" />
<glyph unicode="&#x2010;" horiz-adv-x="380" d="M50 267v93h280v-93h-280z" />
<glyph unicode="." horiz-adv-x="233" d="M120 -9q-27 0 -44.5 21t-14.5 52t25.5 52t49.5 21t44 -21t14 -52t-25 -52t-49 -21z" />
<glyph unicode="/" horiz-adv-x="385" d="M47 -170l-79 17l387 857l80 -17z" />
<glyph unicode="0" d="M227 -9q-110 0 -162 83q-45 69 -45 185q0 145 68 254q79 129 215 129q103 0 160 -79q52 -73 52 -187q0 -146 -70 -256q-81 -129 -218 -129zM435 325q3 27 3 52q0 191 -143 191q-103 0 -156 -104q-41 -82 -41 -195q0 -88 29 -140q35 -64 108 -64q87 0 143 87q46 72 57 173 z" />
<glyph unicode="1" horiz-adv-x="483" d="M269 0h-89l61 577h-138l7 60h227z" />
<glyph unicode="2" d="M39 0l8 77l206 212q115 119 124 202q4 36 -24.5 67t-66.5 31q-70 0 -135 -72l-43 49q93 93 184 93q70 0 120.5 -56t42.5 -129q-9 -90 -124 -214l-171 -183h293l-8 -77h-406z" />
<glyph unicode="3" d="M43 46l41 48q28 -28 68 -49q46 -24 82 -24q65 0 107 50q35 43 42 101q5 52 -33 88.5t-109 36.5q-12 0 -35 1h-34l6 66h22q19 -1 23 -1q17 0 53 11q85 26 93 108q6 49 -18 86q-27 42 -79 42q-30 0 -71.5 -24.5t-60.5 -49.5l-39 46q84 88 174 88q77 0 129.5 -54t44.5 -127 q-5 -46 -39 -87q-37 -44 -89 -55q63 -12 108 -62t39 -109q-9 -86 -70 -145q-70 -67 -181 -67q-110 0 -174 82z" />
<glyph unicode="4" d="M349 507l-228 -291h197zM378 140l-18 -168h-69l19 168h-292l8 76l346 433h60l-46 -433h105l-8 -76h-105z" />
<glyph unicode="5" d="M222 -34q-55 0 -114.5 32t-80.5 72l38 54q28 -37 75 -65q52 -32 97 -32q66 0 115 46t55 108q7 66 -31.5 113t-92.5 47q-31 0 -69 -18q-46 -23 -65 -60l-60 32l37 343h353l-9 -81h-278l-23 -213q39 64 130 65q87 1 139.5 -50.5t52.5 -140.5q0 -112 -77 -182t-192 -70z" />
<glyph unicode="6" d="M287 372q-71 0 -122.5 -52.5t-51.5 -122.5q0 -63 35 -106q39 -49 106 -49t118 60q48 57 48 125q0 67 -37 106t-96 39zM247 -22q-95 0 -153 53q-68 62 -68 184q0 25 3 52q17 168 100 273q92 117 242 117q80 0 156 -38l-38 -61q-63 33 -126 33q-91 0 -160 -80 q-66 -76 -83 -186q38 58 94 88q49 27 98 27q75 0 128 -56q57 -59 57 -148q0 -106 -72 -182t-178 -76z" />
<glyph unicode="7" d="M501 573l-349 -602l-80 22l338 581h-301l6 60h392z" />
<glyph unicode="8" d="M265 313q-82 -38 -103 -53q-49 -36 -55 -92q-7 -68 45 -106q40 -29 90 -29q61 0 104.5 36.5t50.5 98.5q6 57 -36 94q-25 21 -96 51zM293 608q-43 0 -77 -28q-38 -30 -48 -82q3 -43 31 -70q21 -20 68 -40q127 44 134 113q5 46 -30 78q-33 29 -78 29zM229 -28 q-88 0 -145 42q-61 47 -61 130q0 71 55 129q46 49 121 79q-61 40 -79 60q-32 37 -27 86q8 78 78 126q62 41 138 41q71 0 119 -40q54 -45 46 -115q-10 -92 -136 -154q156 -61 142 -185q-9 -86 -71 -140q-68 -59 -180 -59z" />
<glyph unicode="9" d="M290 586q-60 0 -102 -52q-37 -45 -43 -106q-7 -60 23 -104q33 -49 93 -49q74 0 122.5 46t48.5 119q0 61 -35 101q-39 45 -107 45zM223 -36q-123 0 -192 71l37 61q67 -66 170 -66q86 0 140 100q42 77 56 190q-42 -61 -75 -83q-43 -29 -108 -28q-86 1 -137 57 q-48 53 -48 133q0 105 62 176q65 75 168 75q89 0 149 -54q72 -64 72 -184q0 -22 -3 -46q-17 -159 -71 -259q-77 -143 -220 -143z" />
<glyph unicode=":" horiz-adv-x="244" d="M145 360q-26 0 -44.5 21t-14.5 52q3 31 25.5 52t48.5 21q27 0 45 -21t15 -52q-4 -31 -26 -52t-49 -21zM106 -9q-27 0 -45 21t-15 52q4 31 26.5 52t48.5 21q27 0 45 -21t14 -52q-3 -31 -25 -52t-49 -21z" />
<glyph unicode=";" horiz-adv-x="254" d="M163 361q-28 0 -46.5 20.5t-14.5 50.5q3 30 25.5 51t50.5 21q27 0 44.5 -20.5t14.5 -51.5q-4 -30 -25.5 -50.5t-48.5 -20.5zM35 -72l43 -12q103 119 113 204h-97q-4 -44 -25 -108q-19 -59 -34 -84z" />
<glyph unicode="&#x3c;" horiz-adv-x="366" d="M132 285l187 -240l-73 -3l-219 247l218 240l74 -3z" />
<glyph unicode="=" horiz-adv-x="441" d="M51 287v65h338v-65h-338zM51 135v65h338v-65h-338z" />
<glyph unicode="&#x3e;" horiz-adv-x="365" d="M99 42l-74 3l187 240l-188 241l75 3l217 -240z" />
<glyph unicode="?" horiz-adv-x="484" d="M347 371l-53 -38q-29 -24 -41 -57q-8 -19 -17 -38q-2 -6 -2 -49h-69q-2 77 14 115q18 44 79 92q50 39 59 49q31 31 35 64q4 46 -22 73t-68 27q-94 0 -139 -104l-63 35q72 141 207 141q83 0 129 -56q40 -51 33 -117q-8 -79 -82 -137zM182 -13q-23 0 -37.5 16.5t-12.5 40.5 q3 24 21 41t41 17q25 0 40.5 -17t12.5 -41q-2 -24 -21 -40.5t-44 -16.5z" />
<glyph unicode="@" horiz-adv-x="1010" d="M493 -232q-188 0 -315 140q-125 136 -125 330q0 191 134.5 325.5t325.5 134.5q189 0 303 -119t114 -311q0 -106 -73 -188q-31 -35 -84 -62q-58 -30 -104 -30q-37 0 -59 28.5t-18 70.5q-75 -98 -168 -98q-153 0 -153 211q0 113 69 207q76 105 189 105q31 0 63 -11 q41 -14 58 -40l3 41h73l-64 -408q1 -12 12 -22.5t25 -11.5q15 -1 49 18.5t51 38.5q26 28 44 76q18 44 18 75q0 163 -93.5 262t-254.5 99q-162 0 -276.5 -114.5t-114.5 -276.5q0 -165 104 -282q108 -119 267 -119q155 0 256 51q92 47 152 144l67 -43q-75 -126 -202 -178 q-106 -43 -273 -43zM638 398q-13 25 -52 40q-31 12 -60 12q-45 0 -96 -43q-76 -65 -76 -192q0 -66 12 -95q23 -56 93 -56q40 0 87.5 46.5t56.5 94.5z" />
<glyph unicode="A" horiz-adv-x="568" d="M418 -10l-39 189h-225l-78 -189l-81 10l282 654h80l147 -650zM305 551l-123 -303h184z" />
<glyph unicode="B" horiz-adv-x="524" d="M232 0l-203 2l68 639l166 3q1 0 14 1h13q74 0 114.5 -34t40.5 -97q0 -57 -17 -91q-16 -30 -38.5 -45t-68.5 -27q137 -30 137 -144q0 -11 -2 -23q-9 -88 -70.5 -136.5t-153.5 -47.5zM263 585q-14 0 -83 -3l-22 -207l68 -1q58 -1 95.5 29t42.5 79q10 103 -101 103zM243 312 h-92l-26 -245h94q139 0 151 118q6 52 -28 89.5t-99 37.5z" />
<glyph unicode="C" horiz-adv-x="539" d="M276 -8q-123 0 -189 86q-58 77 -58 200q0 150 82 260q91 121 237 122q49 0 109 -21q47 -16 76 -34l-47 -79q-85 56 -141 56q-100 0 -164 -95q-51 -74 -61 -170q-2 -19 -2 -37q0 -92 46 -150t119 -58q85 0 165 43l32 -65q-66 -34 -101 -44q-45 -14 -103 -14z" />
<glyph unicode="D" horiz-adv-x="565" d="M181 -2q-29 0 -74.5 2t-77.5 2l68 642q69 3 146 3q150 0 220 -60q74 -62 74 -199q0 -30 -4 -65q-16 -154 -103 -238q-91 -87 -249 -87zM437 312q4 36 4 67q0 204 -178 204q-29 0 -84 -2l-53 -507h90q95 0 156 75q55 66 65 163z" />
<glyph unicode="E" horiz-adv-x="489" d="M178 568l-20 -193h252l-8 -75l-252 1l-24 -225l267 1l-8 -77h-356l68 640h359l-8 -72h-270z" />
<glyph unicode="F" horiz-adv-x="490" d="M178 568l-20 -193h254l-8 -75h-254l-32 -300h-89l68 640h360l-8 -72h-271z" />
<glyph unicode="G" horiz-adv-x="582" d="M491 61q-65 -37 -105 -50q-51 -17 -116 -17q-118 0 -183 87q-59 77 -59 197q0 23 3 45q12 123 88 221q89 116 217 116q46 0 104 -16q64 -19 92 -44l-45 -75q-77 57 -150 57q-94 0 -157 -97q-49 -76 -59 -168q-2 -19 -2 -38q0 -90 43 -148.5t113 -58.5q71 0 132 31l21 198 h-142l8 74h230z" />
<glyph unicode="H" horiz-adv-x="582" d="M397 0l32 300h-279l-32 -300h-89l68 640h89l-28 -265h279l28 265h88l-68 -640h-88z" />
<glyph unicode="I" horiz-adv-x="215" d="M29 0l68 642h89l-68 -642h-89z" />
<glyph unicode="J" horiz-adv-x="215" d="M134 69q-11 -100 -60 -159q-58 -69 -164 -69q-60 0 -95 50l53 67q11 -14 31 -24.5t32 -10.5q98 0 113 138l61 577h89z" />
<glyph unicode="K" horiz-adv-x="531" d="M384 -21l-190 297l-54 -70l-22 -206h-89l68 640h89l-34 -315q184 212 286 340l65 -50l-246 -280q33 -64 115 -175l120 -158z" />
<glyph unicode="L" horiz-adv-x="501" d="M29 0l68 641h89l-60 -569h286l-8 -72h-375z" />
<glyph unicode="M" horiz-adv-x="793" d="M596 0l54 511l-248 -512h-83l-142 516l-55 -515h-82l68 642h127l143 -515l258 515h117l-68 -642h-89z" />
<glyph unicode="N" horiz-adv-x="582" d="M421 -11q-73 162 -259 475l-49 -463l-84 -1l69 644h74l251 -455l48 451h82l-66 -629z" />
<glyph unicode="O" horiz-adv-x="644" d="M284 -16q-114 0 -182 71q-72 76 -72 211q0 27 3 56q15 141 107.5 232.5t220.5 91.5q116 0 185.5 -77t69.5 -201q0 -23 -2 -46q-17 -160 -114 -252q-89 -86 -216 -86zM351 572q-105 0 -175 -97q-63 -87 -63 -197q0 -93 49.5 -155t129.5 -62q105 0 176 94q65 87 65 194 q0 96 -48 158q-51 65 -134 65z" />
<glyph unicode="P" horiz-adv-x="459" d="M238 264q-38 0 -92 4l-28 -268h-89l68 640l189 4q73 2 115 -42t42 -116q0 -87 -58 -153q-61 -69 -147 -69zM268 585l-88 -2l-27 -253l78 1q59 1 93 50q31 43 31 104q0 102 -87 100z" />
<glyph unicode="Q" horiz-adv-x="658" d="M569 -70l-111 107q-80 -53 -172 -53q-113 0 -182 72q-72 76 -72 211q0 27 3 56q15 141 107.5 232t221.5 91q116 0 185 -75.5t69 -198.5q0 -72 -24 -151q-28 -88 -72 -129l106 -103zM353 571q-106 0 -175 -95q-63 -86 -63 -196q0 -93 48.5 -156t127.5 -63q55 0 110 32 l-68 66l60 58l70 -68q60 73 70 167q2 19 2 37q0 94 -48 155q-51 63 -134 63z" />
<glyph unicode="R" horiz-adv-x="530" d="M379 -10q-46 52 -102 147q-36 61 -84 154l-44 -2l-31 -289h-89l68 641q202 3 203 3q156 -2 156 -143q0 -16 -2 -34q-9 -73 -61 -119q-45 -39 -110 -52q27 -45 93 -144q34 -52 116 -142zM267 583l-87 -2l-24 -225h65q80 0 116.5 33.5t36.5 111.5q0 84 -107 82z" />
<glyph unicode="S" horiz-adv-x="492" d="M203 -10q-60 0 -112.5 22.5t-76.5 60.5l53 64q53 -71 147 -71q53 0 89 28q40 32 46 89q6 64 -64 97l-134 57q-74 43 -74 129q0 14 2 29q8 74 71 123q60 48 140 48q92 0 162 -61l-48 -63q-48 48 -122 48q-102 0 -113 -101q-7 -63 94 -98q97 -34 128 -59q46 -37 46 -112 q0 -16 -2 -35q-10 -98 -82 -150q-62 -45 -150 -45z" />
<glyph unicode="T" d="M345 572l-61 -572h-89l61 572h-198l7 67h473l-7 -67h-186z" />
<glyph unicode="U" horiz-adv-x="571" d="M499 230q-13 -125 -93 -191q-69 -56 -164 -56q-82 0 -133 47q-57 53 -57 157q0 20 2 43l44 410h89l-44 -410q-2 -20 -2 -39q0 -133 111 -133q59 0 99 37q49 45 58 135l44 410h90z" />
<glyph unicode="V" horiz-adv-x="548" d="M276 -10h-65l-137 640l87 23l104 -522l214 522l72 -23z" />
<glyph unicode="W" horiz-adv-x="789" d="M557 -6h-52l-93 465l-191 -465h-63l-110 632l89 19l80 -499l186 489h64l80 -488l188 498l66 -19z" />
<glyph unicode="X" horiz-adv-x="552" d="M386 -15l-126 278l-168 -278l-89 20l219 312l-141 309l93 19l108 -243l155 244l73 -20l-196 -292l169 -329z" />
<glyph unicode="Y" horiz-adv-x="503" d="M290 272l-28 -272h-90l28 272l-139 355l82 23l114 -297l174 297l74 -23z" />
<glyph unicode="Z" horiz-adv-x="544" d="M135 76h317l-8 -76h-408l1 77l375 497l-305 -2l7 67h393v-72z" />
<glyph unicode="[" horiz-adv-x="269" d="M11 -114l90 854h153l-5 -51h-71l-78 -733h81l-7 -70h-163z" />
<glyph unicode="\" horiz-adv-x="385" d="M262 -170l-205 857l81 17l206 -857z" />
<glyph unicode="]" horiz-adv-x="266" d="M5 -114l7 70h81l78 733h-72l5 51h151l-90 -854h-160z" />
<glyph unicode="^" d="M270 592l-130 -139l-36 52l175 173l141 -173l-48 -52z" />
<glyph unicode="_" d="M2 -109l6 59h525l-6 -59h-525z" />
<glyph unicode="`" horiz-adv-x="329" d="M258 556l-200 90l54 65l200 -96z" />
<glyph unicode="a" horiz-adv-x="493" d="M365 437q-44 8 -75 8q-85 0 -134 -75q-43 -66 -43 -160q0 -146 90 -146q35 0 83 59.5t55 118.5zM450 502l-41 -361q-2 -16 -2 -36q0 -50 11 -105h-85l-2 119l-44 -75q-43 -55 -107 -55q-76 0 -117 69q-33 57 -33 139q0 128 79 219q82 95 208 95q32 0 67 -4.5t66 -4.5z " />
<glyph unicode="b" horiz-adv-x="515" d="M234 -10q-64 0 -123 50l-19 -40h-65l75 700h79l-27 -252q75 64 132 64q91 0 142 -65q46 -58 46 -151q0 -18 -2 -37q-14 -131 -80 -202q-62 -67 -158 -67zM277 443q-91 0 -131 -72l-28 -263q15 -24 50 -38q32 -14 65 -14q127 0 149 200q2 19 2 37q0 150 -107 150z" />
<glyph unicode="c" horiz-adv-x="479" d="M241 -12q-116 0 -168 79q-36 57 -36 142q0 17 1 33q15 135 97 206q70 60 163 59q88 -1 152 -53l-49 -66q-35 28 -56 38q-28 13 -65 13q-67 0 -111 -61q-39 -55 -48 -140q-2 -15 -2 -29q0 -72 40 -114q36 -38 90 -38q72 0 140 55l33 -52q-81 -72 -181 -72z" />
<glyph unicode="d" horiz-adv-x="511" d="M412 0h-66l-8 42q-87 -55 -145 -55q-81 0 -127 68q-41 60 -41 151q0 120 61 207q69 99 184 99q70 0 112 -58l26 243h78zM374 380q-23 37 -46 50t-69 13q-74 0 -113 -80q-31 -64 -31 -146q0 -69 27 -111q29 -45 85 -45q61 0 118 45z" />
<glyph unicode="e" horiz-adv-x="484" d="M378 378q0 35 -22 49t-73 14q-81 0 -126 -67q-28 -42 -36 -89q65 -3 171 18q87 17 86 75zM115 227q-2 -14 -1 -40q1 -29 15.5 -63t52.5 -53q32 -15 67 -15q57 0 139 64l33 -56q-90 -76 -187 -76q-192 0 -203 196q-7 128 60 220q74 103 206 103q68 0 110 -32 q47 -36 47 -106q0 -44 -41 -81q-36 -31 -81 -41q-103 -23 -167 -23q-24 0 -50 3z" />
<glyph unicode="f" horiz-adv-x="324" d="M365 651q-43 30 -82 31q-35 1 -59 -31q-27 -34 -32 -93l-7 -63h139l-7 -65h-139l-67 -602h-76l67 602h-78l7 65h78l7 66q7 69 41 118q47 67 132 67q44 0 67 -10q7 -3 53 -34z" />
<glyph unicode="g" horiz-adv-x="511" d="M436 62q-16 -155 -52 -217q-54 -94 -186 -94q-115 0 -186 94l48 56q55 -80 154 -80q73 0 104 67q15 31 26 112l14 99q-54 -109 -125 -109q-89 0 -140 61q-47 56 -47 144q0 26 5 53q17 99 70 167q71 90 186 90q48 0 73 -2.5t54 -2.5h48zM396 434q-45 8 -89 8 q-86 -1 -134 -78q-41 -65 -41 -156q0 -60 25 -101q30 -47 83 -47q41 0 86 55q37 46 40 73.5t30 245.5z" />
<glyph unicode="h" horiz-adv-x="512" d="M334 0l35 325q1 11 1 21q0 49 -27 75q-22 22 -56 22q-45 0 -94 -36t-52 -67l-36 -340h-79l74 696h79l-27 -257q48 41 80 56.5t70 15.5q60 0 102 -41q45 -44 45 -111q0 -11 -1 -21l-36 -338h-78z" />
<glyph unicode="i" horiz-adv-x="233" d="M143 602q-22 0 -36.5 15.5t-11.5 39.5q2 23 19.5 38.5t40.5 15.5q21 0 35 -15.5t12 -38.5q-3 -24 -20 -39.5t-39 -15.5zM33 0l53 495h81l-53 -495h-81z" />
<glyph unicode="j" horiz-adv-x="233" d="M168 604q-22 0 -36.5 15.5t-11.5 38.5q2 23 19.5 38.5t39.5 15.5q23 0 37 -15.5t12 -38.5q-3 -23 -20.5 -38.5t-39.5 -15.5zM20 -109q-31 -22 -74 -34l24 -75q57 21 93 46q59 41 67 107l16 155l43 405h-79l-54 -516q-4 -33 -8 -48q-9 -27 -28 -40z" />
<glyph unicode="k" horiz-adv-x="476" d="M357 -25l-193 251l-37 -34l-21 -192h-79l74 697h79l-44 -421l244 245l63 -46l-220 -203l208 -254z" />
<glyph unicode="l" horiz-adv-x="234" d="M119 0h-78l74 698h78z" />
<glyph unicode="m" horiz-adv-x="776" d="M607 0l37 346q10 97 -78 97q-28 0 -73 -32q-55 -38 -60 -89l-34 -322h-78l37 351q5 46 -18 70q-20 21 -54 21q-41 0 -86.5 -37.5t-49.5 -73.5l-35 -331h-79l52 495h79l-7 -70q85 82 149 82q38 0 69 -25t44 -66q94 96 168 96q64 0 103 -52q36 -49 30 -109l-37 -351h-79z " />
<glyph unicode="n" horiz-adv-x="512" d="M344 0l34 325q2 11 2 21q0 49 -27 75q-22 22 -56 22q-40 0 -88 -32q-54 -37 -59 -83l-35 -328h-79l52 495h79l-6 -56q49 41 81 56.5t71 15.5q58 0 100 -41q46 -45 46 -112q0 -10 -1 -20l-36 -338h-78z" />
<glyph unicode="o" horiz-adv-x="546" d="M247 -11q-118 0 -171 79q-39 56 -39 145q0 20 2 39q14 129 102 201q73 59 163 59q81 0 138 -51q67 -60 67 -170q0 -19 -2 -39q-9 -89 -63 -163q-74 -100 -197 -100zM302 445q-88 0 -137 -76q-42 -65 -42 -156q0 -69 29 -111q34 -48 98 -48q85 0 133 77q40 65 40 155 q0 69 -28 111q-32 48 -93 48z" />
<glyph unicode="p" horiz-adv-x="517" d="M240 -13q-63 0 -110 57l-26 -241h-79l74 692h79l-5 -47q73 64 124 64q197 0 197 -197q0 -132 -58 -222q-69 -106 -196 -106zM288 445q-36 0 -73.5 -23.5t-50.5 -57.5l-28 -263q56 -47 116 -47q64 0 108 70q36 58 43 129q2 23 2 43q0 149 -117 149z" />
<glyph unicode="q" horiz-adv-x="511" d="M330 -197l27 251q-100 -67 -150 -67q-74 0 -118 62.5t-44 161.5q0 22 3 46q10 101 62 169q66 87 181 86q31 0 65 -20q30 -17 44 -37l4 40h80l-74 -692h-80zM390 365q-7 35 -36 58t-67 23q-78 0 -121 -78q-35 -64 -35 -148q0 -68 32 -113.5t84 -45.5q53 0 116 45z" />
<glyph unicode="r" horiz-adv-x="342" d="M315 410q-41 12 -53 12q-33 -1 -76 -54q-38 -48 -40 -69l-31 -299h-79l53 495h79l-12 -100q82 111 137 111q17 0 54 -16z" />
<glyph unicode="s" horiz-adv-x="437" d="M186 -14q-103 0 -160 58l47 61q46 -50 128 -50q40 0 72 30q29 27 32 56q6 53 -70 76q-43 10 -116 38q-55 30 -48 102q8 78 65 120q49 38 117 37t139 -46l-33 -63q-65 45 -116 45q-87 0 -95 -73q-4 -38 35 -54l139 -47q75 -37 67 -117q-8 -84 -70 -131q-55 -42 -133 -42z " />
<glyph unicode="t" horiz-adv-x="351" d="M182 -8q-43 0 -71 34.5t-28 92.5q0 13 1 26l30 285h-79l7 66h79l11 101h79l-11 -101h149l-7 -67l-149 1l-31 -297q-7 -67 50 -67q31 0 83 45l33 -54q-63 -65 -146 -65z" />
<glyph unicode="u" horiz-adv-x="511" d="M421 0h-71l-6 52q-81 -70 -160 -70q-54 0 -91 40q-40 42 -40 112q0 13 2 26l35 335h79l-35 -331q-1 -12 -1 -23q0 -88 77 -88q47 0 96.5 37.5t53.5 73.5l35 331h78z" />
<glyph unicode="v" horiz-adv-x="464" d="M234 -12h-54l-133 491l81 22l95 -386l170 386l74 -22z" />
<glyph unicode="w" horiz-adv-x="735" d="M534 -9h-61l-91 370l-171 -370h-63l-96 488l79 20l69 -395l164 388h70l87 -387l147 394l71 -20z" />
<glyph unicode="x" horiz-adv-x="492" d="M383 -26l-141 216l-184 -214l-62 45l205 225l-139 218l78 44l120 -198l167 197l58 -35l-192 -221l162 -231z" />
<glyph unicode="y" horiz-adv-x="480" d="M224 -84q-21 -43 -65 -75q-50 -37 -105 -37q-15 0 -67 18l33 71q25 -13 48 -14q46 -1 88 59q3 5 49 88l-140 452l79 21l108 -370l172 369l69 -17z" />
<glyph unicode="z" horiz-adv-x="482" d="M27 0l7 66l260 303q23 26 57 61h-269l7 64h362l-7 -70l-252 -299q-13 -15 -51 -55h279l-7 -70h-386z" />
<glyph unicode="{" d="M444 748q-40 13 -56 13q-45 0 -62 -21q-20 -27 -30 -115q-2 -26 -4.5 -71t-3.5 -60q-8 -72 -98 -146l-3 -25q29 -23 49 -63q25 -48 25 -100q0 -10 -1 -21q-2 -23 -12.5 -81.5t-12.5 -80.5q-6 -59 -3 -74q7 -29 43 -29q44 0 71 21l12 -75q-63 -19 -94 -17q-72 4 -99 52 q-21 37 -19 109q1 27 8 87q1 14 7.5 55.5t8.5 65.5q5 42 -14 85q-16 37 -44 62l5 40q43 39 56 58q27 36 32 80q2 24 4 70t4 66q22 201 181 201q25 0 72 -11z" />
<glyph unicode="|" horiz-adv-x="229" d="M37 -220l96 906h88l-96 -906h-88z" />
<glyph unicode="}" d="M341 172q-2 -24 -4.5 -65.5t-3.5 -55.5q-6 -56 -11 -83q-9 -49 -24 -81q-37 -80 -129 -84q-31 -1 -90 17l28 75q23 -21 67 -21q50 0 57 62q2 13 5 41q2 23 4.5 81.5t4.5 80.5q6 58 44 113q31 46 67 71l3 25q-74 74 -66 146q1 13 13 95q9 58 9 96q0 48 -16 64 q-13 12 -50 12q-16 0 -58 -13l-8 75q50 11 76 11q140 0 140 -157q0 -35 -9 -90q-12 -74 -14 -90q-5 -44 14 -80q10 -19 44 -58l-3 -40q-80 -60 -90 -147z" />
<glyph unicode="~" horiz-adv-x="395" d="M273 379q-24 0 -56 27.5t-50 27.5q-29 0 -71 -53l-11 72q41 44 91 44q35 0 79 -34q18 -14 33 -14q16 0 34 20q8 7 18 17l11 -70q-41 -37 -78 -37z" />
<glyph unicode="&#xa1;" horiz-adv-x="235" d="M89 501h84l-64 -604h-84zM157 706q25 0 39.5 -16.5t12.5 -40.5q-3 -24 -21.5 -41t-42.5 -17t-39 17t-12 41q2 24 20.5 40.5t42.5 16.5z" />
<glyph unicode="&#xa2;" horiz-adv-x="479" d="M197 -10q-91 14 -132 89q-30 54 -30 129q0 18 2 34q13 118 78 188q55 60 137 74l9 86h89l-9 -85q62 -11 110 -51l-51 -68q-57 49 -120 49q-67 0 -110 -59q-39 -53 -48 -138q-2 -15 -2 -29q0 -72 40 -112q35 -36 89 -36q75 0 140 53l34 -54q-64 -57 -137 -69l-8 -80h-89z " />
<glyph unicode="&#xa3;" horiz-adv-x="476" d="M391 -7q-51 14 -127 14q-132 0 -220 -21l-3 68q15 4 40 13q6 2 18 13q38 33 44 91q7 65 0 130h-60l7 69h53q-5 90 -4 106q9 77 55 126q50 54 131 54q62 0 114 -32l-36 -61q-58 29 -79 29q-46 0 -77.5 -36.5t-36.5 -83.5q-2 -21 1 -51q2 -26 5 -51h136l-7 -69h-119 q-1 -61 -7 -123q-8 -77 -41 -102q80 11 110 11q68 0 127 -17z" />
<glyph unicode="&#xa4;" horiz-adv-x="489" d="M408 360h-178l-5 -45h178l-7 -75h-178l-18 -164l193 1l-8 -77h-282l26 240h-99l6 75h100l5 46h-99l7 74h100l22 205h285l-8 -72h-196l-14 -133h178z" />
<glyph unicode="&#xa5;" horiz-adv-x="531" d="M296 283l-2 -18h86l-6 -59h-86l-7 -60h86l-6 -59h-86l-9 -85h-89l9 85h-89l6 59h89l7 60h-89l6 59h89l2 18l-140 358h90l104 -264l160 264h91z" />
<glyph unicode="&#xa6;" horiz-adv-x="182" d="M54 -18v274h77v-274h-77zM54 382v274h77v-274h-77z" />
<glyph unicode="&#xa7;" horiz-adv-x="392" d="M157 -87q-77 0 -125 52l37 49q39 -45 99 -45q27 0 50 20q20 19 22 38q2 25 -17 39q-12 8 -42 16q-13 3 -37 10q-10 2 -17 6q-62 22 -56 85q7 60 56 91q-44 24 -38 77q6 57 48 88q37 28 85 27q53 -1 105 -35l-28 -50q-50 34 -84 34q-33 0 -47 -13t-17 -45q-2 -17 24 -29 l62 -18q94 -28 86 -102q-7 -61 -51 -91q38 -24 33 -77q-6 -62 -51 -96q-40 -31 -97 -31zM189 253q-50 -6 -56 -64q-2 -22 50 -37l30 -9q41 17 45 52q2 26 -18 39q-13 9 -51 19z" />
<glyph unicode="&#xa8;" horiz-adv-x="306" d="M249 546q-24 0 -35 16t-9 36t16.5 36t39.5 16q23 0 34.5 -16.5t9.5 -35.5q-2 -20 -17 -36t-39 -16zM39 546q-23 0 -34.5 16t-9.5 36t17 36t39 16q23 0 34.5 -16t9.5 -36t-17 -36t-39 -16z" />
<glyph unicode="&#xa9;" horiz-adv-x="796" d="M396 102q-87 0 -136 67q-43 59 -43 149q0 85 44 144q50 67 137 68q60 0 121 -35l-24 -51q-59 36 -94 36q-64 0 -99 -61q-27 -48 -27 -109q0 -68 35 -112.5t86 -44.5q53 0 102 28l25 -42q-70 -37 -127 -37zM132 316q0 -110 78 -188t188 -78t188 78t78 188t-78 188t-188 78 t-188 -78t-78 -188zM67 316q0 137 97 234t234 97t234 -97t97 -234t-97 -234t-234 -97t-234 97t-97 234z" />
<glyph unicode="&#xab;" horiz-adv-x="390" d="M240 286l131 -161l-71 -3l-153 167l153 162l71 -3zM99 286l130 -161l-70 -3l-154 167l154 162l70 -3z" />
<glyph unicode="&#xac;" horiz-adv-x="613" d="M474 28v222h-386v93h470v-315h-84z" />
<glyph unicode="&#xad;" horiz-adv-x="498" d="M52 285v63h394v-63h-394z" />
<glyph unicode="&#xae;" horiz-adv-x="796" d="M133 316h-1q0 -110 78 -188t188 -78t188 78t78 188t-78 188t-188 78t-187.5 -78t-77.5 -188zM67 316q0 137 97 234t234 97t234 -97t97 -234t-97 -234t-234 -97t-234 97t-97 234zM491 108q-34 34 -76 94q-27 39 -63 98l-29 -1v-185h-57v410q97 2 129 2q112 -1 111 -113 q-1 -91 -98 -109l69 -93q24 -31 85 -90zM379 487l-56 -1v-144h42q51 0 70 19t19 59q0 68 -75 67z" />
<glyph unicode="&#xaf;" horiz-adv-x="406" d="M102 594l6 65h234l-6 -65h-234z" />
<glyph unicode="&#xb0;" horiz-adv-x="273" d="M152 712q56 0 89 -37.5t27 -92.5t-47 -92.5t-97 -37.5t-90.5 38t-28.5 92t48 92t99 38zM146 662q-34 0 -59 -23t-29 -57t16.5 -57t55.5 -23q33 0 57 23t28 57t-15.5 57t-53.5 23z" />
<glyph unicode="&#xb1;" horiz-adv-x="501" d="M279 280v-185h-62v184l-164 1v62h164v175h62v-175h167v-62h-167zM66 12v54h374v-54h-374z" />
<glyph unicode="&#xb4;" horiz-adv-x="329" d="M96 557l-41 59l220 96l40 -65z" />
<glyph unicode="&#xb5;" horiz-adv-x="508" d="M422 -61q-62 38 -67 122l-70 -61q-29 -22 -62 -22q-29 0 -55 13q-29 14 -39 38l-24 -225h-73l72 682h73l-36 -342q-10 -97 106 -97q39 0 76 36q36 33 39 66l36 338h80l-39 -371q-6 -48 7 -78q9 -23 20 -31q18 -12 25 -20z" />
<glyph unicode="&#xb6;" horiz-adv-x="507" d="M437 0h-69v642h69v-642zM297 0h-69v337h-25q-154 0 -153 156q0 82 39 117q36 32 117 32h91v-642z" />
<glyph unicode="&#xb7;" horiz-adv-x="236" d="M120 334q-28 0 -45 23t-14 56q4 33 26 56t49 23q28 0 45 -23t13 -56q-3 -33 -25 -56t-49 -23z" />
<glyph unicode="&#xb8;" horiz-adv-x="205" d="M89 -219q-65 0 -81 48l40 34q26 -32 47 -32q36 0 40 34q4 39 -30 39q-14 0 -36 -15l-44 21l15 94l58 1l-10 -52q10 4 26 4q42 0 64 -29q20 -25 16 -60q-3 -35 -31 -61t-74 -26z" />
<glyph unicode="&#xbb;" horiz-adv-x="393" d="M215 122l-71 3l131 161l-131 162l71 3l153 -162zM74 122l-72 3l131 161l-131 162l72 3l152 -162z" />
<glyph unicode="&#xbf;" horiz-adv-x="459" d="M102 222q58 39 82 108q22 61 23 149h80q1 -14 1 -30q0 -76 -24 -145q-28 -80 -80.5 -121.5t-60.5 -49.5q-31 -31 -34 -64q-5 -46 21.5 -73t67.5 -27q94 0 139 103l64 -34q-73 -141 -207 -141q-83 0 -129 56q-41 51 -34 117q10 99 91 152zM268 681q23 0 37.5 -16.5 t12.5 -40.5q-3 -25 -21 -41.5t-42 -16.5t-39.5 17t-12.5 41q2 24 21 40.5t44 16.5z" />
<glyph unicode="&#xc0;" horiz-adv-x="580" d="M413 -10l-39 189h-225l-77 -189l-81 10l281 654h81l146 -650zM301 551l-124 -303h184zM394 686l-200 90l54 65l200 -96z" />
<glyph unicode="&#xc1;" horiz-adv-x="568" d="M413 -10l-39 189h-225l-77 -189l-81 10l281 654h81l146 -650zM301 551l-124 -303h184zM232 687l-41 59l220 96l40 -65z" />
<glyph unicode="&#xc2;" horiz-adv-x="568" d="M413 -10l-39 189h-225l-77 -189l-81 10l281 654h81l146 -650zM301 551l-124 -303h184zM318 749l-146 -93l7 71l149 113l130 -113l-7 -71z" />
<glyph unicode="&#xc3;" horiz-adv-x="580" d="M415 -10l-39 189h-225l-77 -189l-81 10l281 654h81l146 -650zM303 551l-124 -303h184zM393 669q-28 0 -70 34.5t-58 34.5q-39 0 -74 -42l-21 59q16 21 48 35q29 14 54 15q28 1 67 -33.5t59 -34.5q25 0 53 25l19 -60q-10 -11 -37.5 -22t-39.5 -11z" />
<glyph unicode="&#xc4;" horiz-adv-x="580" d="M415 -10l-39 189h-225l-77 -189l-81 10l282 654h81l146 -650zM304 551l-124 -303h184zM428 694q-25 0 -37 17q-10 14 -8 35q2 20 17 35.5t39 15.5q23 0 34.5 -16t9.5 -35q-2 -20 -17 -36t-38 -16zM218 694q-25 0 -37 17q-10 14 -8 35q2 20 17 35.5t39 15.5q23 0 34.5 -16 t9.5 -35q-2 -20 -17 -36t-38 -16z" />
<glyph unicode="&#xc5;" horiz-adv-x="580" d="M412 -10l-39 189h-225l-77 -189l-81 10l281 654h81l146 -650zM300 551l-124 -303h184zM321 686q-40 0 -63 24.5t-19 62.5q4 37 32 61.5t68 24.5t63 -24.5t19 -61.5q-4 -38 -32 -62.5t-68 -24.5zM334 816q-43 0 -47 -43q-5 -44 38 -44t48 44q4 43 -39 43z" />
<glyph unicode="&#xc6;" horiz-adv-x="862" d="M305 551l-123 -303h184zM578 568l-20 -193h252l-8 -75l-252 1l-24 -225l267 1l-8 -77h-370l-36 179h-225l-78 -189l-81 10l282 654h80l96 -427l44 413h359l-8 -72h-270z" />
<glyph unicode="&#xc7;" horiz-adv-x="570" d="M301 -219q-64 0 -81 48l40 34q25 -32 48 -32q35 0 38 34q4 39 -29 39q-14 0 -36 -15l-44 21l14 85q-102 13 -157 96q-48 74 -48 186q0 150 82 260q90 122 237 123q49 0 109 -21q46 -16 75 -34l-47 -79q-85 56 -141 56q-100 0 -164 -95q-51 -74 -61 -170q-2 -19 -2 -37 q0 -92 46.5 -150t118.5 -58q85 0 166 43l31 -65q-62 -31 -95 -42q-42 -14 -93 -16l-7 -39q9 4 25 4q42 0 65 -29q19 -25 16 -60q-4 -35 -30 -60q-30 -27 -76 -27z" />
<glyph unicode="&#xc8;" horiz-adv-x="489" d="M173 568l-21 -193h252l-8 -75l-252 1l-24 -225l268 1l-9 -77h-356l68 640h359l-7 -72h-270zM362 686l-198 90l53 65l200 -96z" />
<glyph unicode="&#xc9;" horiz-adv-x="469" d="M173 568l-21 -193h252l-8 -75l-252 1l-24 -225l268 1l-9 -77h-356l68 640h359l-7 -72h-270zM200 687l-40 59l221 96l40 -65z" />
<glyph unicode="&#xca;" horiz-adv-x="489" d="M173 568l-21 -193h252l-8 -75l-252 1l-23 -225l267 1l-9 -77h-356l68 640h359l-7 -72h-270zM287 749l-148 -93l8 71l150 113l130 -113l-8 -71z" />
<glyph unicode="&#xcb;" horiz-adv-x="489" d="M175 568l-21 -193h252l-8 -75l-251 1l-24 -225l267 1l-8 -77h-356l67 640h359l-7 -72h-270zM396 696q-24 0 -35 16t-9 36t16.5 36t38.5 16q23 0 35 -16.5t10 -35.5q-2 -20 -17 -36t-39 -16zM187 696q-24 0 -35 16t-9 36t16.5 36t38.5 16q23 0 34.5 -16t9.5 -36t-17 -36 t-38 -16z" />
<glyph unicode="&#xcc;" horiz-adv-x="215" d="M23 0l68 642h89l-68 -642h-89zM226 686l-199 90l54 65l199 -96z" />
<glyph unicode="&#xcd;" horiz-adv-x="215" d="M23 0l68 642h89l-68 -642h-89zM64 687l-41 59l221 96l40 -65z" />
<glyph unicode="&#xce;" horiz-adv-x="215" d="M23 0l69 642h89l-69 -642h-89zM150 749l-147 -93l8 71l149 113l130 -113l-8 -71z" />
<glyph unicode="&#xcf;" horiz-adv-x="215" d="M26 0l68 642h89l-68 -642h-89zM249 696q-24 0 -35 16t-9 36t16.5 36t38.5 16q23 0 35 -16.5t10 -35.5q-2 -20 -17 -36t-39 -16zM40 696q-24 0 -35 16t-9 36t16.5 36t38.5 16q23 0 34.5 -16t9.5 -36t-17 -36t-38 -16z" />
<glyph unicode="&#xd0;" horiz-adv-x="565" d="M153 335h68l-7 -68h-68l-20 -193h90q95 0 156 75q55 66 65 163q4 36 4 67q0 204 -178 204q-29 0 -84 -2zM7 335h57l33 309q69 3 146 3q150 0 220 -60q74 -62 74 -199q0 -30 -4 -65q-16 -154 -103 -238q-91 -87 -249 -87q-29 0 -74.5 2t-77.5 2l28 265h-57z" />
<glyph unicode="&#xd1;" horiz-adv-x="570" d="M418 -11q-73 162 -259 475l-49 -463l-84 -1l69 644h74l251 -455l48 451h82l-66 -629zM413 659q-27 0 -69.5 34.5t-57.5 34.5q-40 0 -75 -42l-21 59q17 21 49 35q29 14 54 15q27 1 66 -33.5t59 -34.5q25 0 53 25l20 -60q-10 -11 -37.5 -22t-40.5 -11z" />
<glyph unicode="&#xd2;" horiz-adv-x="644" d="M279 -16q-114 0 -183 71q-72 76 -72 211q0 27 3 56q15 141 108 232.5t221 91.5q116 0 185.5 -77t69.5 -201q0 -23 -3 -46q-17 -160 -113 -252q-89 -86 -216 -86zM346 572q-106 0 -175 -97q-63 -87 -63 -197q0 -93 49.5 -155t129.5 -62q104 0 175 94q65 87 65 194 q0 96 -49 159.5t-132 63.5zM437 686l-199 90l53 65l200 -96z" />
<glyph unicode="&#xd3;" horiz-adv-x="644" d="M279 -16q-114 0 -183 71q-72 76 -72 211q0 27 3 56q15 141 108 232.5t221 91.5q116 0 185.5 -77t69.5 -201q0 -23 -3 -46q-17 -160 -113 -252q-89 -86 -216 -86zM346 572q-106 0 -176 -97q-62 -87 -62 -197q0 -93 49.5 -155t129.5 -62q104 0 175 94q65 87 65 194 q0 96 -49 159.5t-132 63.5zM275 687l-41 59l220 96l41 -65z" />
<glyph unicode="&#xd4;" horiz-adv-x="644" d="M278 -16q-114 0 -182 71q-72 76 -72 211q0 27 3 56q15 141 107.5 232.5t220.5 91.5q116 0 185.5 -77t69.5 -201q0 -23 -2 -46q-17 -160 -113 -252q-90 -86 -217 -86zM345 572q-105 0 -175 -97q-63 -87 -63 -197q0 -93 49.5 -155t129.5 -62q105 0 176 94q65 87 65 194 q0 96 -48 158q-51 65 -134 65zM369 759l-148 -93l8 71l150 113l130 -113l-8 -71z" />
<glyph unicode="&#xd5;" horiz-adv-x="648" d="M280 -16q-113 0 -182 71q-72 76 -72 211q0 27 3 56q15 141 107.5 232.5t221.5 91.5q116 0 185.5 -77t69.5 -201q0 -23 -3 -46q-17 -160 -113 -252q-89 -86 -217 -86zM348 572q-106 0 -176 -97q-62 -87 -62 -197q0 -93 49.5 -155t129.5 -62q104 0 175 94q65 87 65 194 q0 96 -49 159.5t-132 63.5zM414 669q-27 0 -69.5 34.5t-58.5 34.5q-39 0 -74 -42l-21 59q17 21 47.5 35t54.5 15q28 1 67 -33.5t59 -34.5q25 0 53 25l20 -60q-11 -11 -38 -22t-40 -11z" />
<glyph unicode="&#xd6;" horiz-adv-x="648" d="M281 -16q-114 0 -182 71q-73 76 -73 211q0 27 4 56q15 141 107.5 232.5t220.5 91.5q116 0 185.5 -77t69.5 -201q0 -23 -2 -46q-17 -160 -113 -252q-90 -86 -217 -86zM348 572q-106 0 -175 -97q-63 -87 -63 -197q0 -93 49.5 -155t129.5 -62q104 0 175 94q66 87 66 194 q0 96 -49.5 159.5t-132.5 63.5zM471 696q-24 0 -35 16t-9 36t16.5 36t38.5 16q23 0 35 -16.5t10 -35.5q-2 -20 -17.5 -36t-38.5 -16zM261 696q-24 0 -35 16t-9 36t16.5 36t38.5 16q23 0 35 -16.5t10 -35.5q-2 -20 -17.5 -36t-38.5 -16z" />
<glyph unicode="&#xd8;" horiz-adv-x="644" d="M194 93l196 475q-16 4 -38 4q-105 0 -175 -97q-63 -87 -63 -196q0 -126 80 -186zM461 533l-194 -470q18 -2 26 -2q104 0 175 94q66 87 66 194q0 121 -73 184zM437 682l75 -24l-19 -46q124 -71 124 -245q0 -22 -2 -45q-17 -160 -114 -252q-89 -86 -216 -86q-28 0 -49 4 l-23 -57l-75 24l23 57q-130 68 -130 254q0 27 3 56q15 141 107.5 232.5t220.5 91.5q31 0 57 -6z" />
<glyph unicode="&#xd9;" horiz-adv-x="571" d="M494 230q-14 -125 -94 -191q-68 -56 -163 -56q-83 0 -133 47q-58 53 -58 157q0 20 3 43l43 410h89l-43 -410q-2 -20 -2 -39q0 -133 111 -133q58 0 99 37q48 45 58 135l43 410h90zM395 686l-199 90l53 65l200 -96z" />
<glyph unicode="&#xda;" horiz-adv-x="571" d="M494 230q-14 -125 -94 -191q-68 -56 -164 -56q-82 0 -132 47q-58 53 -58 157q0 20 3 43l43 410h89l-43 -410q-3 -20 -3 -39q0 -133 112 -133q58 0 98 37q49 45 59 135l43 410h90zM233 687l-41 59l221 96l40 -65z" />
<glyph unicode="&#xdb;" horiz-adv-x="571" d="M493 230q-13 -125 -94 -191q-68 -56 -163 -56q-83 0 -133 47q-57 53 -57 157q0 20 2 43l44 410h89l-44 -410q-2 -20 -2 -39q0 -133 112 -133q58 0 98 37q49 45 58 135l44 410h90zM319 759l-148 -93l8 71l150 113l130 -113l-8 -71z" />
<glyph unicode="&#xdc;" horiz-adv-x="521" d="M496 230q-13 -125 -94 -191q-68 -56 -163 -56q-83 0 -133 47q-58 53 -58 157q0 20 3 43l43 410h89l-43 -410q-2 -20 -2 -39q0 -133 112 -133q58 0 98 37q48 45 58 135l43 410h90zM418 696q-24 0 -35 16t-9 36t16.5 36t38.5 16q23 0 35 -16.5t10 -35.5q-2 -20 -17.5 -36 t-38.5 -16zM209 696q-24 0 -35 16t-9 36t16.5 36t38.5 16q23 0 34.5 -16t9.5 -36t-17 -36t-38 -16z" />
<glyph unicode="&#xdd;" horiz-adv-x="503" d="M288 272l-28 -272h-89l28 272l-140 355l82 23l114 -297l174 297l74 -23zM218 627l-40 59l220 96l41 -65z" />
<glyph unicode="&#xde;" horiz-adv-x="543" d="M263 145q-22 0 -43 3q-39 6 -87 41l-32 -297h-84l86 808h84l-10 -97q55 73 140 73q93 0 144 -69q47 -63 47 -159q0 -18 -2 -36q-14 -140 -85 -208q-62 -59 -158 -59zM290 599q-79 0 -122 -74l-26 -252q31 -60 123 -60q78 0 121 75q35 62 35 147q0 69 -29 113 q-34 51 -102 51z" />
<glyph unicode="&#xdf;" horiz-adv-x="549" d="M295 -15q-62 0 -100 14q-43 17 -76 59l49 65q25 -41 56 -54q24 -10 74 -10q38 0 67.5 23t33.5 56q5 52 -70 78l-78 25q-45 17 -65 40q-26 30 -21 79q9 85 66 124q43 30 105 30q20 0 39 -3q8 10 16 27q0 7 1 26q4 37 -31.5 61t-79.5 24q-53 0 -87 -29q-38 -32 -44 -91 l-56 -529h-78l56 529q20 186 221 186q83 0 130.5 -41.5t47.5 -113.5q0 -20 -4 -39q-7 -40 -45 -93q-44 16 -94 19q-32 2 -57 -19t-28 -53q-3 -24 23 -41q18 -11 66 -27q65 -21 77 -26q44 -20 60 -48q18 -34 12 -89q-7 -65 -63 -112t-123 -47z" />
<glyph unicode="&#xe0;" horiz-adv-x="491" d="M406 556l-194 90l57 65l195 -96zM365 437q-44 8 -75 8q-85 0 -134 -75q-43 -66 -43 -160q0 -146 90 -146q35 0 83 59.5t55 118.5zM450 502l-41 -361q-2 -16 -2 -36q0 -50 11 -105h-85l-2 119l-44 -75q-43 -55 -107 -55q-76 0 -117 69q-33 57 -33 139q0 128 79 219 q82 95 208 95q32 0 67 -4.5t66 -4.5z" />
<glyph unicode="&#xe1;" horiz-adv-x="491" d="M265 557l-37 59l225 96l36 -65zM365 437q-44 8 -75 8q-85 0 -134 -75q-43 -66 -43 -160q0 -146 90 -146q35 0 83 59.5t55 118.5zM450 502l-41 -361q-2 -16 -2 -36q0 -50 11 -105h-85l-2 119l-44 -75q-43 -55 -107 -55q-76 0 -117 69q-33 57 -33 139q0 128 79 219 q82 95 208 95q32 0 67 -4.5t66 -4.5z" />
<glyph unicode="&#xe2;" horiz-adv-x="491" d="M315 619l-152 -93l11 71l155 113l125 -113l-12 -71zM365 437q-44 8 -75 8q-85 0 -134 -75q-43 -66 -43 -160q0 -146 90 -146q35 0 83 59.5t55 118.5zM450 502l-41 -361q-2 -16 -2 -36q0 -50 11 -105h-85l-2 119l-44 -75q-43 -55 -107 -55q-76 0 -117 69q-33 57 -33 139 q0 128 79 219q82 95 208 95q32 0 67 -4.5t66 -4.5z" />
<glyph unicode="&#xe3;" horiz-adv-x="525" d="M381 549q-28 0 -69 34.5t-56 34.5q-39 0 -77 -42l-17 59q18 21 49 35t56 15q28 1 65 -33.5t57 -34.5q24 0 54 25l17 -60q-11 -11 -39 -22t-40 -11zM365 437q-44 8 -75 8q-85 0 -134 -75q-43 -66 -43 -160q0 -146 90 -146q35 0 83 59.5t55 118.5zM450 502l-41 -361 q-2 -16 -2 -36q0 -50 11 -105h-85l-2 119l-44 -75q-43 -55 -107 -55q-76 0 -117 69q-33 57 -33 139q0 128 79 219q82 95 208 95q32 0 67 -4.5t66 -4.5z" />
<glyph unicode="&#xe4;" horiz-adv-x="491" d="M424 546q-24 0 -34.5 16t-7.5 36t18.5 36t39.5 16q23 0 34 -16.5t8 -35.5q-3 -20 -19 -36t-39 -16zM214 546q-24 0 -34.5 16t-7.5 36t18.5 36t39.5 16t34.5 -16.5t7.5 -35.5q-3 -20 -19 -36t-39 -16zM365 437q-44 8 -75 8q-85 0 -134 -75q-43 -66 -43 -160 q0 -146 90 -146q35 0 83 59.5t55 118.5zM450 502l-41 -361q-2 -16 -2 -36q0 -50 11 -105h-85l-2 119l-44 -75q-43 -55 -107 -55q-76 0 -117 69q-33 57 -33 139q0 128 79 219q82 95 208 95q32 0 67 -4.5t66 -4.5z" />
<glyph unicode="&#xe5;" horiz-adv-x="491" d="M247 566q-36 0 -57 19.5t-21 51.5q0 43 30.5 72.5t74.5 29.5q36 0 57 -20t21 -51q0 -43 -31 -72.5t-74 -29.5zM267 696q-42 0 -49 -43q-7 -44 36 -44q42 0 49 44q7 43 -36 43zM365 437q-44 8 -75 8q-85 0 -134 -75q-43 -66 -43 -160q0 -146 90 -146q35 0 83 59.5 t55 118.5zM450 502l-41 -361q-2 -16 -2 -36q0 -50 11 -105h-85l-2 119l-44 -75q-43 -55 -107 -55q-76 0 -117 69q-33 57 -33 139q0 128 79 219q82 95 208 95q32 0 67 -4.5t66 -4.5z" />
<glyph unicode="&#xe6;" horiz-adv-x="775" d="M667 332q11 109 -97 109q-73 0 -107 -36q-27 -26 -53 -105h254zM309 37q-18 -12 -56 -33q-46 -20 -102 -20q-54 0 -89 32.5t-35 90.5q0 10 1 20q9 81 62 117q33 23 125 44q57 13 110 18l7 60q3 33 -20 54t-58 21q-55 0 -139 -64l-35 56q35 29 96 55q57 24 86 24 q103 0 137 -83q73 78 186 78q66 0 112 -49q47 -52 47 -132q0 -14 -2 -28l-6 -61h-340q-4 -40 -3 -58q2 -23 16 -54q15 -34 59 -54q36 -15 73 -15q59 0 137 64l35 -56q-90 -76 -188 -76q-124 0 -174 85zM317 233q-13 0 -79.5 -11.5t-88.5 -22.5q-43 -22 -49 -73 q-4 -33 12 -54q17 -25 57 -25q39 0 82 21q52 25 56 64z" />
<glyph unicode="&#xe7;" horiz-adv-x="483" d="M224 -219q-64 0 -78 48l42 34q23 -32 45 -32q37 0 42 34q6 39 -27 39q-15 0 -38 -15l-42 21l19 84q-136 30 -145 194q-7 125 61 218q75 102 203 101q87 0 150 -53l-49 -66q-60 51 -120 51q-80 0 -127 -87q-39 -74 -35 -158q3 -65 42 -103q35 -34 86 -34q72 0 139 55 l34 -52q-83 -72 -181 -72h-2l-9 -35q9 4 25 4q37 0 59 -23q18 -21 18 -51q0 -45 -33.5 -73.5t-78.5 -28.5z" />
<glyph unicode="&#xe8;" horiz-adv-x="497" d="M418 556l-195 90l57 65l195 -96zM378 378q0 35 -22 49t-73 14q-81 0 -126 -67q-28 -42 -36 -89q65 -3 171 18q87 17 86 75zM115 227q-2 -14 -1 -40q1 -29 15.5 -63t52.5 -53q32 -15 67 -15q57 0 139 64l33 -56q-90 -76 -187 -76q-192 0 -203 196q-7 128 60 220 q74 103 206 103q68 0 110 -32q47 -36 47 -106q0 -44 -41 -81q-36 -31 -81 -41q-103 -23 -167 -23q-24 0 -50 3z" />
<glyph unicode="&#xe9;" horiz-adv-x="497" d="M275 557l-37 59l225 96l37 -65zM378 378q0 35 -22 49t-73 14q-81 0 -126 -67q-28 -42 -36 -89q65 -3 171 18q87 17 86 75zM115 227q-2 -14 -1 -40q1 -29 15.5 -63t52.5 -53q32 -15 67 -15q57 0 139 64l33 -56q-90 -76 -187 -76q-192 0 -203 196q-7 128 60 220 q74 103 206 103q68 0 110 -32q47 -36 47 -106q0 -44 -41 -81q-36 -31 -81 -41q-103 -23 -167 -23q-24 0 -50 3z" />
<glyph unicode="&#xea;" horiz-adv-x="497" d="M337 619l-152 -93l11 71l155 113l125 -113l-12 -71zM378 378q0 35 -22 49t-73 14q-81 0 -126 -67q-28 -42 -36 -89q65 -3 171 18q87 17 86 75zM115 227q-2 -14 -1 -40q1 -29 15.5 -63t52.5 -53q32 -15 67 -15q57 0 139 64l33 -56q-90 -76 -187 -76q-192 0 -203 196 q-7 128 60 220q74 103 206 103q68 0 110 -32q47 -36 47 -106q0 -44 -41 -81q-36 -31 -81 -41q-103 -23 -167 -23q-24 0 -50 3z" />
<glyph unicode="&#xeb;" horiz-adv-x="497" d="M445 546q-24 0 -34.5 16t-7.5 36t18.5 36t39.5 16q23 0 34 -16.5t8 -35.5q-3 -20 -19 -36t-39 -16zM235 546q-24 0 -34.5 16t-7.5 36t18.5 36t39.5 16t34.5 -16.5t7.5 -35.5q-3 -20 -19 -36t-39 -16zM378 378q0 35 -22 49t-73 14q-81 0 -126 -67q-28 -42 -36 -89 q65 -3 171 18q87 17 86 75zM115 227q-2 -14 -1 -40q1 -29 15.5 -63t52.5 -53q32 -15 67 -15q57 0 139 64l33 -56q-90 -76 -187 -76q-192 0 -203 196q-7 128 60 220q74 103 206 103q68 0 110 -32q47 -36 47 -106q0 -44 -41 -81q-36 -31 -81 -41q-103 -23 -167 -23 q-24 0 -50 3z" />
<glyph unicode="&#xec;" horiz-adv-x="249" d="M39 0l53 495h80l-53 -495h-80zM229 556l-198 90l53 65l200 -96z" />
<glyph unicode="&#xed;" horiz-adv-x="234" d="M39 0l53 495h80l-53 -495h-80zM67 557l-39 59l220 96l40 -65z" />
<glyph unicode="&#xee;" horiz-adv-x="210" d="M39 0l53 495h80l-53 -495h-80zM143 619l-147 -93l8 71l149 113l130 -113l-8 -71z" />
<glyph unicode="&#xef;" horiz-adv-x="207" d="M43 0l52 495h80l-52 -495h-80zM238 546q-24 0 -35 16t-9 36t16.5 36t38.5 16q23 0 35 -16.5t10 -35.5q-2 -20 -17 -36t-39 -16zM28 546q-23 0 -34 16t-9 36t16.5 36t37.5 16q24 0 35.5 -16t9.5 -36t-17 -36t-39 -16z" />
<glyph unicode="&#xf0;" horiz-adv-x="563" d="M428 358q-49 82 -142 82q-71 0 -119 -48t-58 -136q-2 -16 -2 -31q0 -70 33 -115q35 -48 96 -48q80 0 132 59q49 54 58 141q5 52 2 96zM239 613h94q-40 54 -60 73l72 45q46 -50 86 -118h136l-8 -69h-94q50 -114 50 -207q0 -16 -1 -31q-18 -147 -85 -229q-77 -94 -212 -94 q-95 0 -150 71q-49 64 -49 157q0 16 2 32q14 136 96 205q71 60 178 60q77 0 115 -44q-7 29 -34 80h-143z" />
<glyph unicode="&#xf1;" horiz-adv-x="486" d="M340 0l34 325q1 11 1 21q0 49 -26 75q-23 22 -56 22q-41 0 -89 -32q-54 -37 -59 -83l-34 -328h-79l52 495h79l-6 -56q49 41 81 56.5t71 15.5q58 0 101 -41q46 -45 46 -112q0 -10 -1 -20l-36 -338h-79zM355 549q-28 0 -70.5 34.5t-58.5 34.5q-39 0 -74 -42l-20 59 q16 21 48 35q29 14 53 15q28 1 67.5 -33.5t59.5 -34.5q23 0 53 25l19 -60q-11 -11 -38 -22t-39 -11z" />
<glyph unicode="&#xf2;" horiz-adv-x="543" d="M242 -11q-119 0 -172 79q-38 57 -38 146q0 19 2 38q13 129 102 201q73 59 163 59q81 0 138 -51q68 -60 68 -170q0 -19 -2 -39q-10 -89 -64 -163q-74 -100 -197 -100zM296 445q-87 0 -137 -76q-42 -65 -42 -156q0 -69 30 -111q33 -48 98 -48q84 0 132 77q40 65 40 155 q0 69 -28 111q-32 48 -93 48zM409 556l-200 90l54 65l200 -96z" />
<glyph unicode="&#xf3;" horiz-adv-x="543" d="M242 -11q-119 0 -172 79q-38 57 -38 146q0 19 2 38q13 129 102 201q73 59 163 59q80 0 138 -51q68 -60 68 -170q0 -19 -2 -39q-10 -89 -64 -163q-74 -100 -197 -100zM296 445q-87 0 -137 -76q-42 -65 -42 -156q0 -69 30 -111q33 -48 98 -48q84 0 132 77q40 65 40 155 q0 69 -28 111q-32 48 -93 48zM247 557l-41 59l220 96l40 -65z" />
<glyph unicode="&#xf4;" horiz-adv-x="543" d="M242 -11q-119 0 -172 79q-38 57 -38 146q0 19 2 38q13 129 102 201q73 59 163 59q81 0 138 -51q68 -60 68 -170q0 -19 -2 -39q-10 -89 -64 -163q-74 -100 -197 -100zM296 445q-87 0 -137 -76q-42 -65 -42 -156q0 -69 30 -111q33 -48 98 -48q84 0 132 77q40 65 40 155 q0 69 -28 111q-31 48 -93 48zM312 619l-147 -93l7 71l149 113l130 -113l-7 -71z" />
<glyph unicode="&#xf5;" horiz-adv-x="543" d="M243 -11q-118 0 -171 79q-39 57 -39 146q0 19 2 38q14 129 102 201q73 59 164 59q80 0 137 -51q68 -60 68 -170q0 -19 -2 -39q-9 -89 -64 -163q-73 -100 -197 -100zM297 445q-87 0 -136 -76q-42 -65 -42 -156q0 -69 29 -111q34 -48 98 -48q85 0 132 77q41 65 41 155 q0 69 -28 111q-32 48 -94 48zM386 549q-27 0 -69.5 34.5t-57.5 34.5q-39 0 -75 -42l-20 59q16 21 48 35q29 14 54 15q27 1 66.5 -33.5t59.5 -34.5q25 0 52 25l20 -60q-10 -11 -37.5 -22t-40.5 -11z" />
<glyph unicode="&#xf6;" horiz-adv-x="543" d="M245 -11q-118 0 -172 79q-38 57 -38 146q0 19 2 38q13 129 102 201q73 59 163 59q81 0 138 -51q68 -60 68 -170q0 -19 -2 -39q-10 -89 -64 -163q-74 -100 -197 -100zM299 445q-87 0 -136 -76q-43 -65 -43 -156q0 -69 30 -111q33 -48 98 -48q85 0 132 77q41 65 41 155 q0 69 -28 111q-32 48 -94 48zM410 546q-24 0 -35.5 16t-8.5 36q2 20 16.5 36t38.5 16q23 0 35 -16.5t10 -35.5q-3 -20 -18 -36t-38 -16zM201 546q-24 0 -35.5 16t-8.5 36q2 20 16.5 36t38.5 16q23 0 34.5 -16t9.5 -36q-3 -20 -16 -35q-16 -17 -39 -17z" />
<glyph unicode="&#xf7;" horiz-adv-x="496" d="M264 397q-25 0 -42.5 19t-17.5 47t17.5 47t42.5 19t42.5 -19t17.5 -47t-17.5 -47t-42.5 -19zM53 275v70h393v-70h-393zM264 93q-25 0 -42.5 19t-17.5 47t17.5 47t42.5 19t42.5 -19t17.5 -47t-17.5 -47t-42.5 -19z" />
<glyph unicode="&#xf8;" horiz-adv-x="546" d="M160 92l144 353h-3q-87 0 -136 -76q-43 -65 -43 -156q0 -78 38 -121zM378 416l-148 -361q6 -1 20 -1q85 0 132 77q41 66 41 155t-45 130zM359 578l76 -24l-28 -68q102 -57 102 -194q0 -20 -2 -40q-10 -89 -64 -163q-73 -100 -196 -100q-24 0 -43 3l-25 -61l-76 24l26 62 q-92 55 -92 196q0 20 2 39q13 129 102 201q73 59 162 59q10 0 28 -2z" />
<glyph unicode="&#xf9;" horiz-adv-x="482" d="M414 0h-71q-1 14 -4 52q-83 -70 -162 -70q-54 0 -90 40q-40 42 -40 112q0 13 1 26l36 335h79l-35 -331q-2 -12 -2 -23q0 -88 78 -88q47 0 96.5 37.5t53.5 73.5l35 331h78zM377 556l-198 90l53 65l200 -96z" />
<glyph unicode="&#xfa;" horiz-adv-x="482" d="M414 0h-71q-1 14 -4 52q-83 -70 -162 -70q-54 0 -92 41t-38 111q0 13 1 26l36 335h79l-35 -331q-2 -12 -2 -23q0 -88 78 -88q47 0 96.5 37.5t53.5 73.5l35 331h78zM205 557l-40 59l220 96l40 -65z" />
<glyph unicode="&#xfb;" horiz-adv-x="482" d="M414 0h-71q-1 14 -4 52q-83 -70 -162 -70q-53 0 -90 40q-40 42 -40 112q0 13 1 26l36 335h79l-35 -331q-2 -12 -2 -23q0 -88 78 -88q47 0 96.5 37.5t53.5 73.5l35 331h78zM291 619l-147 -93l8 71l149 113l130 -113l-8 -71z" />
<glyph unicode="&#xfc;" horiz-adv-x="482" d="M418 0h-71q-2 14 -5 52q-83 -70 -161 -70q-54 0 -91 40q-40 42 -40 112q0 13 1 26l36 335h79l-35 -331q-1 -12 -1 -23q0 -88 77 -88q47 0 96.5 37.5t53.5 73.5l35 331h78zM389 546q-24 0 -35 16t-9 36t16.5 36t38.5 16q23 0 35 -16.5t10 -35.5q-2 -20 -17 -36t-39 -16z M180 546q-24 0 -35 16t-9 36t16.5 36t38.5 16q23 0 34.5 -16t9.5 -36t-17 -36t-38 -16z" />
<glyph unicode="&#xfe;" horiz-adv-x="522" d="M245 -10q-40 0 -65 13l-56 38l-25 -236h-86l94 880h83l-29 -266q64 81 157 81q88 0 135 -58q44 -54 44 -143q0 -17 -2 -35q-14 -142 -87 -213q-64 -61 -163 -61zM297 430q-40 0 -79 -24.5t-62 -64.5l-25 -244q13 -20 54 -31q34 -10 67 -10q78 0 122 80q36 66 36 151 q0 143 -113 143z" />
<glyph unicode="&#xff;" horiz-adv-x="467" d="M221 -84q-21 -43 -65 -75q-50 -37 -104 -37q-16 0 -68 18l33 71q25 -13 48 -14q46 -1 91 67l51 96l-144 436l78 21l114 -354l167 353l68 -17zM377 546q-25 0 -36 16t-9 36t17 36t39 16q23 0 34.5 -16.5t9.5 -35.5q-2 -20 -17 -36t-38 -16zM168 546q-25 0 -36 16t-9 36 t17 36t39 16q23 0 34 -16t9 -36t-16.5 -36t-37.5 -16z" />
<glyph unicode="&#x152;" horiz-adv-x="1028" d="M574 0l24 223q-113 -226 -304 -226q-113 0 -182 74q-72 77 -72 213q0 28 3 57q15 140 106.5 228t220.5 88q186 0 252 -208l21 200h355l-8 -72h-265l-20 -193h255l-8 -75h-258l-23 -225h267l-9 -84h-355zM361 581q-107 0 -175 -92q-61 -84 -61 -193q0 -95 49 -158t128 -63 q104 0 175 97q64 89 64 196q0 94 -47 152q-50 61 -133 61z" />
<glyph unicode="&#x153;" horiz-adv-x="931" d="M302 445q-88 0 -137 -76q-42 -65 -42 -156q0 -69 29 -111q34 -48 98 -48q85 0 133 77q40 65 40 155q0 69 -28 111q-32 48 -93 48zM565 257q-9 -85 11 -132q14 -35 54 -54q31 -15 66 -15q59 0 138 64l34 -56q-88 -76 -186 -76q-176 0 -201 165q-73 -164 -234 -164 q-118 0 -171 79q-39 56 -39 145q0 20 2 39q14 129 102 201q73 59 163 59q68 0 122 -38q62 -44 78 -126q31 73 92.5 116t144.5 43q69 0 113 -41q49 -44 49 -121q0 -13 -2 -27l-6 -61h-330zM824 332q11 109 -97 109q-51 0 -82 -21q-42 -29 -67 -100h244z" />
<glyph unicode="&#x178;" horiz-adv-x="482" d="M287 272l-28 -272h-89l28 272l-140 355l82 23l114 -297l174 297l74 -23zM407 696q-24 0 -35 16t-9 36t16.5 36t38.5 16q23 0 35 -16.5t10 -35.5q-2 -20 -17 -36t-39 -16zM197 696q-24 0 -35 16t-9 36t16.5 36t38.5 16q23 0 35 -16.5t10 -35.5q-2 -20 -17 -36t-39 -16z " />
<glyph unicode="&#x2c6;" horiz-adv-x="337" d="M173 619l-148 -93l8 71l150 113l130 -113l-8 -71z" />
<glyph unicode="&#x2dc;" horiz-adv-x="375" d="M268 549q-28 0 -70.5 34.5t-57.5 34.5q-39 0 -75 -42l-20 59q16 21 48 35q29 14 54 15q28 1 67 -33.5t59 -34.5q23 0 53 25l19 -60q-10 -11 -37.5 -22t-39.5 -11z" />
<glyph unicode="&#x2000;" horiz-adv-x="429" />
<glyph unicode="&#x2001;" horiz-adv-x="858" />
<glyph unicode="&#x2002;" horiz-adv-x="429" />
<glyph unicode="&#x2003;" horiz-adv-x="858" />
<glyph unicode="&#x2004;" horiz-adv-x="286" />
<glyph unicode="&#x2005;" horiz-adv-x="214" />
<glyph unicode="&#x2006;" horiz-adv-x="143" />
<glyph unicode="&#x2007;" horiz-adv-x="143" />
<glyph unicode="&#x2008;" horiz-adv-x="107" />
<glyph unicode="&#x2009;" horiz-adv-x="171" />
<glyph unicode="&#x200a;" horiz-adv-x="47" />
<glyph unicode="&#x2011;" horiz-adv-x="380" d="M50 267v93h280v-93h-280z" />
<glyph unicode="&#x2013;" horiz-adv-x="500" d="M34 292v71h432v-71h-432z" />
<glyph unicode="&#x2014;" horiz-adv-x="1000" d="M27 292v71h946v-71h-946z" />
<glyph unicode="&#x2018;" horiz-adv-x="213" d="M196 708l-43 12q-104 -119 -114 -204h97q5 44 26 108q19 59 34 84z" />
<glyph unicode="&#x2019;" horiz-adv-x="241" d="M37 528l43 -12q104 119 114 204h-97q-5 -44 -26 -108q-19 -59 -34 -84z" />
<glyph unicode="&#x201a;" horiz-adv-x="214" d="M85 -128l-55 -4q1 2 33 45q21 28 27 48q-63 3 -56 72q3 28 27 48.5t48 20.5t43.5 -20.5t16.5 -48.5q-5 -45 -30 -87q-14 -23 -54 -74z" />
<glyph unicode="&#x201c;" horiz-adv-x="443" d="M435 708l-43 12q-104 -119 -114 -204h97q5 44 26 108q19 59 34 84zM235 708l-43 12q-104 -119 -114 -204h97q5 44 26 108q19 59 34 84z" />
<glyph unicode="&#x201d;" horiz-adv-x="443" d="M21 528l43 -12q104 119 114 204h-97q-5 -44 -26 -108q-19 -59 -34 -84zM221 528l43 -12q104 119 114 204h-97q-5 -44 -26 -108q-19 -59 -34 -84z" />
<glyph unicode="&#x201e;" horiz-adv-x="417" d="M21 -72l43 -12q104 119 114 204h-97q-5 -44 -26 -108q-19 -59 -34 -84zM221 -72l43 -12q104 119 114 204h-97q-5 -44 -26 -108q-19 -59 -34 -84z" />
<glyph unicode="&#x2022;" horiz-adv-x="282" d="M129 190q-38 0 -62 28.5t-19 72.5q5 43 35 71.5t68 28.5q37 0 61 -28.5t19 -71.5t-34.5 -72t-67.5 -29z" />
<glyph unicode="&#x2026;" horiz-adv-x="621" d="M498 -16q-28 0 -45.5 18.5t-14.5 50.5q3 33 26 52q20 17 48 17t45 -18t14 -51q-3 -32 -24.5 -50.5t-48.5 -18.5zM309 -16q-28 0 -45.5 18.5t-14.5 50.5q3 33 26 52q20 17 48 17t45 -18t14 -51q-3 -32 -24.5 -50.5t-48.5 -18.5zM120 -16q-28 0 -45.5 18.5t-14.5 50.5 q3 33 26 52q20 17 48 17t45 -18t14 -51q-3 -32 -24.5 -50.5t-48.5 -18.5z" />
<glyph unicode="&#x202f;" horiz-adv-x="171" />
<glyph unicode="&#x2039;" horiz-adv-x="319" d="M148 286l131 -161l-71 -3l-152 167l152 162l71 -3z" />
<glyph unicode="&#x203a;" horiz-adv-x="317" d="M118 122l-71 3l130 161l-130 162l71 3l153 -162z" />
<glyph unicode="&#x205f;" horiz-adv-x="214" />
<glyph unicode="&#x2122;" horiz-adv-x="641" d="M157 315h-64l29 275h-95l5 52h248l-5 -52h-89zM559 514l-97 -199h-54l-56 201l-21 -201h-60l34 329h78l65 -229l113 229h75l-34 -329h-64z" />
</font>
</defs>
</svg>
