<?xml version="1.0" standalone="no"?>
<!DOCTYPE svg PUBLIC "-//W3C//DTD SVG 1.1//EN" "http://www.w3.org/Graphics/SVG/1.1/DTD/svg11.dtd" >
<svg xmlns="http://www.w3.org/2000/svg">
<metadata>
This is a custom SVG webfont generated by Font Squirrel.
Copyright   : This font drawn by, and copyright, Ben Weiner, 1999-2001. Modifications for version 2.0 copyright Ben Weiner, 2006-7. Licensed under the Open Font License (http://scripts.sil.org/OFL). See accompanying license and FONTLOG.
</metadata>
<defs>
<font id="webfont" horiz-adv-x="500" >
<font-face units-per-em="1000" ascent="800" descent="-200" />
<missing-glyph horiz-adv-x="273" />
<glyph unicode=" "  horiz-adv-x="273" />
<glyph unicode="&#x09;" horiz-adv-x="273" />
<glyph unicode="&#xa0;" horiz-adv-x="273" />
<glyph unicode="!" horiz-adv-x="235" d="M56 172v514h125v-514h-125zM37 44q0 32 22 55t54 23q33 0 56 -23t23 -55q0 -33 -23 -55t-56 -22q-32 0 -54 22.5t-22 54.5z" />
<glyph unicode="&#x22;" horiz-adv-x="329" d="M190 645l22 -220h34l39 220h-95zM49 645l22 -220h33l39 220h-94z" />
<glyph unicode="#" horiz-adv-x="536" d="M373 529v-34l71 7v-83l-72 -8v-87l-88 -10l1 88l-36 -4l-1 -87l-88 -10l1 88l-92 -10v83l92 10v35l-91 -10v83l92 10v68l88 9l-1 -67l37 3v68l88 11l-1 -69l72 7v-83zM249 482l36 3v35l-36 -4v-34z" />
<glyph unicode="$" horiz-adv-x="536" d="M328 -100h-117v90q-89 17 -139 90l65 79q61 -75 127 -75q34 0 57 25.5t23 64.5q0 43 -66 69q-101 42 -120 55q-65 48 -64 143q1 57 34 101q32 41 83 59v89h117v-86q51 -14 115 -67l-62 -77q-61 54 -107 54q-28 0 -45.5 -20.5t-17.5 -57.5t64 -59q92 -31 118 -51 q64 -49 64 -151q0 -143 -129 -182v-93z" />
<glyph unicode="%" horiz-adv-x="536" d="M22 518q0 57 33.5 94.5t84.5 37.5t84.5 -37.5t33.5 -94.5q0 -63 -33 -98t-85 -35t-85 35t-33 98zM3 -46l367 680l99 -38l-361 -678zM270 131q0 57 34.5 95.5t86.5 38.5q51 0 85 -38.5t34 -95.5q0 -66 -33 -101.5t-86 -35.5q-54 0 -86 34q-35 37 -35 103zM115 515 q0 -41 25 -41q24 0 24 41q0 44 -25 44q-24 0 -24 -44zM366 127q0 -42 25 -42q24 0 24 42q0 45 -25 45q-24 0 -24 -45z" />
<glyph unicode="&#x26;" horiz-adv-x="555" d="M130 186q0 -41 23 -73q27 -38 73 -38q41 0 84 45q-107 102 -142 172q-38 -29 -38 -106zM378 60q-19 -28 -60 -48q-44 -21 -88 -21q-98 0 -154 57q-51 51 -51 129q0 118 100 186q-33 55 -33 112q0 71 49 118t118 47q42 0 70 -13q34 -16 70 -59l-56 -62q-38 46 -101 46 q-41 0 -41 -63q0 -28 19 -75q41 16 109 18l16 -80q-51 0 -79 -8q56 -80 101 -131q4 15 4 29q0 33 -9 72l88 16l4 -27q5 -30 5 -50q0 -51 -18 -108q21 -19 93 -58l-64 -87q-33 12 -92 60z" />
<glyph unicode="'" horiz-adv-x="194" d="M50 646l29 -233h29l36 233h-94z" />
<glyph unicode="(" horiz-adv-x="318" d="M46 323q0 247 116 466l81 -45q-92 -244 -92 -421q0 -108 28 -217q13 -48 66 -206l-83 -43q-116 230 -116 466z" />
<glyph unicode=")" horiz-adv-x="316" d="M73 -100q55 163 66 204q28 108 28 215q0 185 -91 426l81 43q112 -213 112 -462q0 -245 -112 -469z" />
<glyph unicode="*" horiz-adv-x="275" d="M169 500l2 -54h-75l2 54l-42 -38l-42 70l60 37l-59 38l40 70l44 -39l-2 56l75 -2l-3 -52l41 38l40 -71l-57 -37l59 -38l-42 -70z" />
<glyph unicode="+" horiz-adv-x="498" d="M295 96h-92v170h-151v94h151v161h92v-161h151v-94h-151v-170z" />
<glyph unicode="," horiz-adv-x="254" d="M107 -107l-66 13q19 41 26 93q1 10 5 86h105q0 -36 -24 -99q-22 -59 -46 -93z" />
<glyph unicode="-" horiz-adv-x="380" d="M50 360h280v-93h-280v93z" />
<glyph unicode="&#x2010;" horiz-adv-x="380" d="M50 360h280v-93h-280v93z" />
<glyph unicode="." horiz-adv-x="244" d="M36 77q0 36 26 61.5t61 25.5t61 -25.5t26 -61.5t-25.5 -61t-61.5 -25q-35 0 -61 25t-26 61z" />
<glyph unicode="/" horiz-adv-x="385" d="M-14 -149l310 856l120 -24l-309 -856z" />
<glyph unicode="0" d="M58 103q-50 85 -50 212q0 144 56 236q65 105 185 105t185 -104q58 -93 58 -237q0 -120 -57 -212q-71 -115 -186 -115q-123 0 -191 115zM249 85q73 0 106 84q23 59 23 146q0 244 -129 244q-80 0 -108 -89q-16 -51 -16 -155q0 -86 22 -144q31 -86 102 -86z" />
<glyph unicode="1" d="M463 100v-100h-362v100h133v434h-124v103h232v-537h121z" />
<glyph unicode="2" d="M84 99l180 196q80 87 80 160q0 46 -24.5 78t-68.5 32q-58 0 -108 -88l-75 50q72 131 181 131q93 0 153.5 -57t60.5 -145q0 -66 -43 -134q-33 -53 -99 -115l-107 -96h266v-111h-396v99z" />
<glyph unicode="3" d="M105 145q75 -77 139 -77q57 0 86 37q25 31 25 78q0 45 -28 75q-31 34 -85 34h-62v86h62q42 0 71.5 30t29.5 74q0 35 -27.5 62.5t-64.5 27.5q-32 0 -55 -18q-15 -11 -45 -48l-62 57q74 97 161 97q71 0 128 -45q63 -50 63 -126q0 -53 -31 -89q-20 -24 -66 -49 q51 -25 84 -70q37 -50 37 -107q0 -65 -52 -125q-59 -68 -148 -68q-137 0 -211 88z" />
<glyph unicode="4" d="M137 230h148v234zM394 0h-109v141h-269v76l284 434h94v-421h87v-89h-87v-141z" />
<glyph unicode="5" d="M25 64l48 74q62 -77 151 -77q57 0 97 52q35 46 35 94q0 116 -114 116q-20 0 -54 -20.5t-53 -48.5l-82 20v370h370v-111h-290v-186q19 28 52 49q41 26 82 26q84 0 141 -58q60 -62 60 -161q0 -88 -62 -153q-71 -74 -189 -74q-138 0 -192 88z" />
<glyph unicode="6" d="M137 193q0 -56 31 -93q34 -42 93 -42q47 0 82.5 45t35.5 96q0 61 -30 94t-81 33q-55 0 -91 -34q-40 -37 -40 -99zM16 270q0 168 58 267q69 119 216 119q70 0 162 -45l-40 -83q-48 36 -123 36q-78 0 -120 -73q-35 -59 -41 -156q23 45 82 70q42 17 75 17q85 0 140 -51 q61 -57 61 -158q0 -97 -61 -164q-64 -71 -164 -71q-105 0 -169 65q-76 77 -76 227z" />
<glyph unicode="7" d="M191 -32l-110 30l271 537h-316v109h422v-101z" />
<glyph unicode="8" d="M139 179q0 -61 38 -94q31 -27 71 -27q47 0 79 34.5t32 86.5q0 89 -108 132q-112 -57 -112 -132zM173 497q12 -68 78 -96q90 35 90 94q0 36 -24.5 62t-58.5 26q-31 0 -55 -21q-26 -24 -30 -65zM36 177q0 106 136 175q-105 69 -105 142q0 83 62 127q52 37 129 37 q71 0 120 -37q55 -42 55 -118q0 -79 -97 -145q136 -73 136 -179q0 -91 -53 -146q-58 -61 -167 -61q-93 0 -151 50q-65 55 -65 155z" />
<glyph unicode="9" d="M25 56l60 77q42 -38 74.5 -52.5t78.5 -14.5q71 0 107 81q28 63 28 155q-71 -84 -144 -84q-82 0 -141 57q-64 61 -64 154q0 96 63 161.5t164 65.5q94 0 159 -68q77 -79 77 -225q0 -149 -46 -248q-66 -141 -211 -141q-119 0 -205 82zM132 432q0 -51 32 -92q34 -44 81 -44 q55 0 89 36.5t34 92.5q0 58 -27 99q-32 48 -90 48q-53 0 -86 -39.5t-33 -100.5z" />
<glyph unicode=":" horiz-adv-x="244" d="M36 420q0 36 26 61t61 25q36 0 61.5 -25t25.5 -61t-26 -61.5t-61 -25.5t-61 25.5t-26 61.5zM36 77q0 36 26 61.5t61 25.5t61 -25.5t26 -61.5t-25.5 -61t-61.5 -25q-35 0 -61 25t-26 61z" />
<glyph unicode=";" horiz-adv-x="254" d="M68 418q0 86 69 86q66 0 66 -86t-66 -86q-69 0 -69 86zM107 -107l-66 13q19 41 26 93q1 10 5 86h105q0 -36 -24 -99q-22 -59 -46 -93z" />
<glyph unicode="&#x3c;" horiz-adv-x="366" d="M359 46l-122 -4l-237 247l236 240l123 -4l-201 -240z" />
<glyph unicode="=" horiz-adv-x="441" d="M89 352h321v-98h-321v98zM89 223h321v-98h-321v98z" />
<glyph unicode="&#x3e;" horiz-adv-x="365" d="M-14 46l201 239l-203 240l123 4l236 -240l-236 -247z" />
<glyph unicode="?" horiz-adv-x="546" d="M183 60q0 30 22 52t54 22q33 0 56 -21.5t23 -52.5t-23 -52t-56 -21q-32 0 -54 21t-22 52zM382 356q-54 -40 -76 -105q-5 -15 -5 -73h-98q-4 19 -2 49q2 47 2 41q0 52 22 84q18 26 81 77q47 38 47 80q0 37 -24 66.5t-56 29.5q-80 0 -116 -105l-94 39q35 83 81 117.5 t126 34.5q98 0 152 -52q49 -49 49 -130q0 -52 -24 -89q-18 -29 -65 -64z" />
<glyph unicode="@" horiz-adv-x="1010" d="M626 470l8 40h90q-7 -82 -25 -190l-33 -191l8 -48q6 -17 45 -17q42 0 87 66t45 139q0 153 -94 253.5t-244 100.5t-257 -119q-104 -115 -104 -266q0 -160 86 -273q91 -122 235 -122q104 0 170 29q62 28 144 107l60 -69q-100 -91 -152 -115q-78 -37 -222 -37 q-204 0 -326 142q-114 134 -114 338q0 190 140.5 325t339.5 135q198 0 317.5 -118.5t119.5 -310.5q0 -109 -86.5 -199.5t-194.5 -90.5q-60 0 -92 97q-68 -96 -153 -96q-175 0 -175 219q0 115 74 212q82 109 206 109q30 0 55 -16zM526 436q-50 0 -94 -46q-60 -61 -60 -178 q0 -64 12 -93q19 -49 75 -49q30 0 73.5 44t50.5 85l34 188q-13 17 -42 33t-49 16z" />
<glyph unicode="A" horiz-adv-x="568" d="M380 148h-207l-46 -160l-104 14l208 652h102l210 -647l-116 -19zM200 241h153l-75 260z" />
<glyph unicode="B" horiz-adv-x="501" d="M63 2v639q8 0 94 2q63 2 100 2q80 0 126.5 -42.5t46.5 -120.5q0 -39 -25 -74.5t-65 -56.5q52 -4 91.5 -51t39.5 -108q0 -115 -82 -161q-60 -33 -179 -33q-27 0 -77.5 2t-69.5 2zM181 569v-189h44q45 0 72 28q24 26 24 65q-1 98 -83 98q-21 0 -57 -2zM181 304v-223h67 q54 0 82 32q27 29 27 80q0 42 -28 75q-32 36 -83 36h-65z" />
<glyph unicode="C" horiz-adv-x="557" d="M31 329q0 130 69 224q79 107 213 107q85 0 197 -69l-42 -78q-63 37 -65 39q-36 17 -74 17q-80 0 -126 -90q-37 -72 -37 -161q0 -95 49 -160q46 -62 111 -62q35 0 67 12q24 9 77 39l47 -78q-66 -43 -104 -58q-48 -19 -105 -19q-136 0 -211 106q-66 93 -66 231z" />
<glyph unicode="D" horiz-adv-x="565" d="M63 2v641q80 4 163 4q305 0 307 -324q1 -153 -77 -237q-80 -88 -234 -88q-24 0 -71 2t-88 2zM234 569h-23q-15 -1 -26 -1v-481h55q77 0 125 73q43 65 43 153q0 256 -174 256z" />
<glyph unicode="E" horiz-adv-x="462" d="M179 391h227v-89l-227 1v-214h240v-89h-356v640h359v-85h-243v-164z" />
<glyph unicode="F" horiz-adv-x="463" d="M179 391h229v-89h-229v-302h-116v640h360v-85h-244v-164z" />
<glyph unicode="G" horiz-adv-x="582" d="M302 -6q-129 0 -204 105q-66 92 -67 224q-1 121 63 220q76 117 205 117q46 0 104 -17q67 -21 106 -53l-41 -76q-80 55 -147 55q-75 0 -120 -91q-37 -75 -37 -160q0 -94 41 -160t101 -66q61 0 94 16v196h-131v87h250v-326q-65 -40 -104 -53q-49 -18 -113 -18z" />
<glyph unicode="H" horiz-adv-x="582" d="M401 302h-219v-302h-119v640h119v-249h219v249h118v-640h-118v302z" />
<glyph unicode="I" horiz-adv-x="245" d="M63 641h119v-641h-119v641z" />
<glyph unicode="J" horiz-adv-x="247" d="M13 -187q-55 0 -92 20q-23 13 -71 56l61 75q24 -29 41 -40q22 -15 53 -15q59 0 59 151v580h120v-573q0 -254 -171 -254z" />
<glyph unicode="K" horiz-adv-x="542" d="M216 255l-34 -49v-206h-119v641h119v-290l201 322l105 -53l-208 -290q36 -60 122 -161l140 -161l-140 -31q-98 134 -186 278z" />
<glyph unicode="L" horiz-adv-x="501" d="M63 641h117v-556h258v-85h-375v641z" />
<glyph unicode="M" horiz-adv-x="793" d="M588 427l-152 -428h-104l-153 432v-431h-106v642h152l174 -472l178 472h142v-642h-131v427z" />
<glyph unicode="N" horiz-adv-x="582" d="M167 401l-1 -401h-103v644h96l258 -405v401h102v-625l-95 -30q-98 180 -257 416z" />
<glyph unicode="O" horiz-adv-x="644" d="M32 322q0 140 83 232t211 92q127 0 207 -92t80 -232q0 -159 -86 -251q-81 -87 -208 -87q-126 0 -204 87q-83 92 -83 251zM157 313q0 -97 46 -168t116 -71q71 0 121 73q48 70 48 165q0 100 -44 171q-46 75 -120 75t-122 -75q-45 -71 -45 -170z" />
<glyph unicode="P" horiz-adv-x="475" d="M179 259v-259h-116v641l188 3q82 1 139 -54.5t57 -138.5q0 -77 -67 -135.5t-150 -58.5q-11 0 -51 2zM179 569v-242h32q50 0 85.5 36.5t35.5 84.5q0 114 -109 123q-7 1 -22 -0.5t-22 -1.5z" />
<glyph unicode="Q" horiz-adv-x="658" d="M464 41q-79 -60 -144 -60q-126 0 -206 88q-83 93 -83 252q0 141 83.5 233t212.5 92q128 0 208 -90.5t80 -231.5q0 -130 -75 -202l128 -116l-75 -84zM157 314q0 -97 44 -168q47 -74 116 -74q43 0 78 29l-76 63l78 83l69 -62q23 36 23 130q0 99 -43 168q-47 74 -121 74 q-75 0 -123 -74q-45 -70 -45 -169z" />
<glyph unicode="R" horiz-adv-x="522" d="M201 263h-22v-263h-116v641q27 0 103 2q55 1 90 1q91 0 139 -49.5t47 -136.5q-1 -69 -40 -120q-35 -45 -89 -62q79 -110 229 -260l-147 -27q-74 76 -194 274zM179 569v-236h41q110 0 110 126q0 42 -17 71q-24 43 -80 41z" />
<glyph unicode="S" horiz-adv-x="454" d="M24 82l54 77q60 -70 137 -70q105 0 104 102q0 52 -73 82q-119 50 -133 60q-72 50 -71 153q1 82 65 134q55 44 120 44q104 0 188 -71l-40 -84q-68 64 -129 64q-41 0 -60 -16q-24 -20 -24 -72q0 -46 70 -74q109 -44 131 -60q71 -53 71 -158q0 -103 -67 -157 q-58 -46 -144 -46q-134 0 -199 92z" />
<glyph unicode="T" horiz-adv-x="536" d="M332 0h-119v558h-182v81h473v-81h-172v-558z" />
<glyph unicode="U" horiz-adv-x="611" d="M298 -17q-94 0 -159 59q-76 68 -76 193v405h119v-405q0 -80 45 -126q37 -38 83 -38q44 0 79 39q40 46 40 125v405h119v-405q0 -125 -84 -194q-70 -58 -166 -58z" />
<glyph unicode="V" horiz-adv-x="542" d="M227 -10l-219 636l124 31l154 -470l145 471l103 -33l-220 -635h-87z" />
<glyph unicode="W" horiz-adv-x="789" d="M529 -6l-122 402l-129 -402h-88l-179 628l133 26l112 -440l110 428h103l110 -427l104 440l100 -28l-176 -627h-78z" />
<glyph unicode="X" horiz-adv-x="552" d="M275 244l-138 -274l-111 40l189 307l-178 304l116 41l131 -255l133 257l93 -44l-176 -291l213 -319l-125 -35z" />
<glyph unicode="Y" horiz-adv-x="503" d="M310 0h-118v271l-181 350l123 33l129 -283l136 283l92 -33l-181 -350v-271z" />
<glyph unicode="Z" horiz-adv-x="544" d="M478 99v-99h-417l-26 74l307 476l-274 -2v91h403l23 -84l-300 -456h284z" />
<glyph unicode="[" horiz-adv-x="225" d="M72 740h156v-87h-58v-662h65v-105h-163v854z" />
<glyph unicode="\" horiz-adv-x="385" d="M6 683l109 24l279 -856l-109 -24z" />
<glyph unicode="]" horiz-adv-x="266" d="M50 -9h65v662h-57v87h152v-854h-160v105z" />
<glyph unicode="^" horiz-adv-x="536" d="M165 443l-60 72l162 171l165 -171l-60 -72l-105 119z" />
<glyph unicode="_" horiz-adv-x="536" d="M5 -50h525v-59h-525v59z" />
<glyph unicode="`" horiz-adv-x="329" d="M324 626l-215 89l-62 -78l214 -83z" />
<glyph unicode="a" horiz-adv-x="491" d="M299 223q-30 0 -73 -8q-48 -8 -64 -19q-24 -15 -24 -59q0 -28 18 -49.5t42 -21.5q61 0 100 48zM309 54q-42 -37 -58 -48q-33 -22 -66 -22q-60 0 -100 39q-44 43 -44 113q0 83 48 118q31 21 122 39q47 9 85 13v52q0 22 -18 41.5t-42 19.5q-91 0 -148 -68l-43 61 q27 45 89 74q54 26 102 26q71 0 119.5 -46t48.5 -117v-251q0 -6 7.5 -14t15.5 -8q32 0 42 10l11 -64q-61 -33 -98 -33q-15 0 -39 18q-27 21 -34 47z" />
<glyph unicode="b" horiz-adv-x="515" d="M163 46l-8 -47h-91v701h108v-266q19 34 65 60q42 24 73 24q79 0 127 -76q41 -67 41 -157q0 -295 -196 -295q-35 0 -119 56zM172 335v-207q15 -18 46.5 -33t55.5 -15q57 0 77 67q12 40 12 124q0 158 -89 158q-56 0 -102 -94z" />
<glyph unicode="c" horiz-adv-x="479" d="M39 242q0 134 78 207q65 63 158 62q57 0 152 -64l-33 -69q-65 53 -128 53q-54 0 -84 -64q-26 -54 -26 -128q0 -77 32.5 -124.5t84.5 -47.5q59 0 130 64l45 -59q-39 -45 -79 -64.5t-96 -19.5q-131 0 -192 103q-42 69 -42 151z" />
<glyph unicode="d" horiz-adv-x="511" d="M356 -1l-8 50l-61 -38q-42 -24 -65 -24q-91 0 -142 86q-43 72 -43 175t44 183q48 87 119 87q51 0 78 -12q15 -7 62 -44v235h108v-698h-92zM237 429q-82 0 -82 -170q0 -79 22 -128q24 -56 69 -56q30 0 94 52v215q-33 47 -43 57q-28 30 -60 30z" />
<glyph unicode="e" horiz-adv-x="491" d="M275 68q65 -1 130 63l45 -61q-52 -50 -91 -67q-35 -15 -91 -15q-131 0 -191 108q-38 70 -38 151q0 113 60 186q64 77 173 77q75 0 126 -50q56 -55 56 -147v-75h-296q2 -169 117 -170zM345 323q5 109 -80 109q-34 0 -60 -26q-31 -30 -40 -83h180z" />
<glyph unicode="f" horiz-adv-x="324" d="M234 657q-43 1 -43 -98q0 -13 1 -34t1 -27h124v-90h-124v-408h-105v408h-70v90h70v53q0 195 145 195q46 0 70 -14q5 -3 49 -42l-48 -67q-39 33 -70 34z" />
<glyph unicode="g" horiz-adv-x="511" d="M427 323q0 -80 -53 -133t-132 -53q-26 0 -56 9q-4 -6 -21 -24q-12 -13 -12 -18q0 -31 46 -37q7 -1 72 -1q106 0 136 -12q62 -24 62 -114q0 -89 -102 -140q-78 -39 -159 -39q-75 0 -121 32t-46 90q0 54 89 111q-39 0 -64 24q-22 21 -22 50q0 20 35 53q45 44 49 49 q-79 62 -79 150q0 74 55 129t136 55q94 0 140 -58l131 59v-113h-99q15 -49 15 -69zM158 320q0 -38 21 -70q24 -37 63 -37q35 0 59 33.5t24 78.5q0 34 -24 67q-27 36 -63 36q-37 0 -60 -37q-20 -32 -20 -71zM190 -16q-10 -3 -26 -28t-16 -49q0 -38 15 -54q19 -20 70 -20 q49 0 91 34t42 70q0 30 -22 40q-16 7 -60 7h-94z" />
<glyph unicode="h" horiz-adv-x="512" d="M342 326q0 94 -56 94q-44 0 -84 -47q-32 -38 -32 -54v-319h-107v696h107v-290q56 105 122 105q58 0 106 -46q51 -51 51 -126v-339h-107v326z" />
<glyph unicode="i" horiz-adv-x="233" d="M43 657q0 32 22 53t52 21q29 0 51 -21t22 -53t-21.5 -53.5t-51.5 -21.5t-52 21.5t-22 53.5zM63 495h107v-495h-107v495z" />
<glyph unicode="j" horiz-adv-x="233" d="M194 658q0 -32 -22 -53t-52 -21t-52 21t-22 53t22 53t52 21t52 -21t22 -53zM119 -171q-36 -25 -111 -52l-38 91q84 25 92 68q1 5 1 51v508h108v-550q0 -79 -52 -116z" />
<glyph unicode="k" horiz-adv-x="476" d="M200 222l-30 -44v-179h-107v698h107v-408l178 247l94 -65l-184 -196l217 -244l-96 -62z" />
<glyph unicode="l" horiz-adv-x="234" d="M64 698h106v-698h-106v698z" />
<glyph unicode="m" horiz-adv-x="776" d="M601 339q0 81 -54 81q-25 0 -61 -34q-43 -41 -43 -89v-297h-112v324q0 37 -18.5 64.5t-40.5 27.5q-30 0 -66 -42t-36 -68v-306h-107v496h107v-89q63 100 129 100q36 0 71.5 -29t51.5 -66q75 100 141 100q68 0 111 -55q39 -49 39 -113v-344h-112v339z" />
<glyph unicode="n" horiz-adv-x="512" d="M342 320q0 50 -18 77q-15 24 -39 24q-37 0 -76 -42.5t-39 -75.5v-303h-107v496h107v-89q61 104 123 104q63 0 108 -49q48 -52 48 -130v-332h-107v320z" />
<glyph unicode="o" horiz-adv-x="546" d="M39 252q0 128 81 200q67 60 156 60q88 0 153 -60q78 -71 78 -200q0 -88 -45 -161q-63 -102 -187 -102q-135 0 -196 103q-40 68 -40 160zM155 246q0 -72 29 -122q32 -57 87 -57q57 0 90 58q30 51 30 126q0 73 -27 124q-31 58 -84 58q-61 0 -95 -59q-30 -52 -30 -128z" />
<glyph unicode="p" horiz-adv-x="517" d="M170 28v-225h-107v693h107v-82q13 39 54 69t82 30q94 0 138 -80q36 -65 36 -172q0 -284 -208 -284q-30 0 -102 51zM170 310v-196q62 -46 103 -46q46 0 71 62q20 50 20 118q0 79 -16 118q-21 55 -77 55q-24 0 -59 -43q-32 -38 -42 -68z" />
<glyph unicode="q" horiz-adv-x="511" d="M338 450v46h107v-693h-107v240q-52 -37 -62 -43q-39 -23 -64 -23q-84 0 -131 82q-44 75 -44 193q0 86 40 164q47 92 121 92q46 0 77 -15q20 -9 63 -43zM245 422q-93 -1 -93 -179q0 -72 26 -125t66 -53q14 0 44 28q46 42 50 45v203q-9 27 -38 54t-55 27z" />
<glyph unicode="r" horiz-adv-x="338" d="M250 384q-29 -1 -56 -31q-24 -26 -24 -41v-312h-107v496h107v-81q13 31 36 59q27 32 50 32q38 0 62 -10l-12 -124q-17 10 -26 12q-5 1 -30 0z" />
<glyph unicode="s" horiz-adv-x="437" d="M46 66l56 75q53 -70 117 -70q32 0 51.5 18t19.5 46q0 50 -114 83q-57 16 -83 41q-34 33 -34 90q0 81 53 126q45 39 111 39h2q67 0 152 -54l-39 -74q-58 41 -106 41q-32 0 -49.5 -17t-17.5 -39q0 -27 22 -36q35 -14 68 -24q144 -43 144 -146q0 -87 -57 -136 q-51 -43 -127 -43q-108 0 -169 80z" />
<glyph unicode="t" horiz-adv-x="351" d="M91 154v256h-70v82h70v105h113v-105h100v-83l-100 1v-267q0 -64 37 -64q30 0 40 4q1 0 34 19l24 -69q-51 -28 -69 -34q-25 -7 -79 -7q-100 0 -100 162z" />
<glyph unicode="u" horiz-adv-x="511" d="M349 0q-3 27 -10 71q-69 -89 -124 -89q-62 0 -106 49q-46 53 -46 135v329h107v-326q0 -94 52 -94q36 0 78 46q39 42 39 68v306h107v-495h-97z" />
<glyph unicode="v" horiz-adv-x="464" d="M196 -12l-180 486l108 31l112 -384l107 384l105 -31l-176 -486h-76z" />
<glyph unicode="w" horiz-adv-x="735" d="M479 -9l-109 316l-111 -316h-87l-150 484l110 28l93 -384l101 374h94l105 -373l87 383l107 -28l-155 -484h-85z" />
<glyph unicode="x" horiz-adv-x="488" d="M243 183l-144 -214l-93 63l170 214l-152 208l100 60l125 -197l129 196l89 -51l-159 -211l174 -220l-93 -64z" />
<glyph unicode="y" horiz-adv-x="480" d="M114 -196q-28 0 -97 24l32 95q37 -20 70 -20q51 -1 86 129l-182 441l114 30l118 -366l108 364l101 -25l-199 -554q-18 -47 -53 -79q-43 -39 -98 -39z" />
<glyph unicode="z" horiz-adv-x="482" d="M53 77l203 278q10 15 39 53h-233v86h365v-80l-188 -262q-13 -21 -42 -60h242v-92h-386v77z" />
<glyph unicode="{" horiz-adv-x="536" d="M332 725q-39 0 -48 -39q-3 -11 -3 -72q0 -25 2.5 -69t2.5 -58q0 -75 -73 -148v-7q32 -29 55 -74q27 -55 27 -112q0 -22 -3.5 -78.5t-3.5 -77.5q0 -55 3 -65q5 -15 24 -15q43 0 70 25l30 -119q-47 -16 -103 -13q-92 5 -122 91q-17 50 -17 167q0 14 2 53.5t2 62.5 q0 75 -65 133l1 55q36 42 44 55q20 32 20 70q0 24 -2.5 68t-2.5 63q0 213 158 213q26 0 86 -15l-20 -112q-51 18 -64 18z" />
<glyph unicode="|" horiz-adv-x="229" d="M65 686h128v-906h-128v906z" />
<glyph unicode="}" horiz-adv-x="536" d="M369 61q0 -118 -17 -168q-29 -85 -121 -90q-57 -3 -103 13l29 119q28 -25 71 -25q17 0 21.5 8.5t5.5 32.5v39q0 21 -3.5 77.5t-3.5 78.5q0 57 28 112q22 45 54 74v7q-73 73 -73 148q0 14 2.5 58t2.5 69q0 61 -3 72q-9 39 -48 39q-13 0 -64 -18l-20 112q60 15 86 15 q158 0 158 -213q0 -19 -2.5 -63t-2.5 -68q0 -38 20 -70q8 -13 44 -55l1 -55q-65 -58 -65 -133q0 -23 1.5 -62.5t1.5 -53.5z" />
<glyph unicode="~" horiz-adv-x="395" d="M209 403q-25 17 -35 17q-12 0 -25 -13q-8 -8 -39 -47l-29 93q44 44 95 44q33 0 65 -18t37 -18q11 -1 31 20l20 23l26 -87q-45 -38 -84 -38q-27 0 -62 24z" />
<glyph unicode="&#xa1;" horiz-adv-x="235" d="M172 501v-604h-124v604h124zM192 649q0 -32 -22.5 -55t-55.5 -23q-32 0 -54.5 23t-22.5 55t22.5 54.5t54.5 22.5q33 0 55.5 -22.5t22.5 -54.5z" />
<glyph unicode="&#xa2;" horiz-adv-x="479" d="M38 242q0 113 51 183q45 61 119 80v85h118v-84q53 -12 111 -59l-49 -76q-51 41 -64 49q-27 16 -55 16q-50 0 -83 -62q-31 -58 -31 -135q0 -75 34 -123.5t77 -48.5q31 0 60 19q22 13 65 54l58 -71q-59 -61 -123 -79v-79h-118v78q-98 22 -141 117q-29 63 -29 136z" />
<glyph unicode="&#xa3;" horiz-adv-x="476" d="M293 26q-47 0 -221 -44l-15 100q18 4 35 9q23 6 33 16q25 25 25 72q0 63 -9 114h-67v93h54q-10 54 -10 81q0 80 41 132q46 57 127 57q61 0 131 -41l-44 -81q-68 34 -82 34q-31 0 -52 -32.5t-21 -72.5q0 -15 12 -77h126v-93h-106q4 -43 4 -97q0 -46 -31 -82q37 5 84 5 q61 0 138 -21l-21 -110q-14 4 -73 25q-36 13 -58 13z" />
<glyph unicode="&#xa4;" horiz-adv-x="489" d="M244 349v-45h162v-78h-162v-117l175 1v-110h-292v226h-91v78h91v46h-91v87h91v203h295v-105h-178v-98h162v-88h-162z" />
<glyph unicode="&#xa5;" horiz-adv-x="531" d="M193 287l-172 354h124l110 -225l110 225h124l-171 -354h76v-83h-79v-49h79v-83h-79v-70h-119v70h-82v83h82v49h-82v83h79z" />
<glyph unicode="&#xa6;" horiz-adv-x="182" d="M54 278h77v-296h-77v296zM54 656h77v-296h-77v296z" />
<glyph unicode="&#xa7;" horiz-adv-x="392" d="M50 -23l49 79q46 -53 92 -53q17 0 28.5 12.5t11.5 22.5q0 17 -15 24q-3 2 -29 9q-18 4 -51 16q-66 25 -66 96q0 50 29 84q-29 27 -29 73q0 62 40 97q35 30 83 29q49 -1 116 -44l-34 -81q-59 40 -84 40q-27 0 -31 -14q-2 -6 -2 -21q0 -11 66 -26q97 -31 97 -113 q0 -52 -26 -84q26 -27 26 -73q1 -67 -42 -104q-37 -33 -93 -33q-73 0 -136 64zM158 189q0 -7 34 -17l20 -6q19 13 19 29t-15 24q-6 3 -34 11q-24 -4 -24 -41z" />
<glyph unicode="&#xa8;" horiz-adv-x="306" d="M185 628q0 27 16 47q20 25 54 25q33 0 53 -25q17 -21 17 -47q0 -27 -17 -48q-20 -24 -53 -24q-34 0 -53 24q-17 20 -17 48zM-25 628q0 26 17 47q19 25 53 25q33 0 53 -25q17 -21 17 -47q0 -27 -17 -48q-20 -24 -53 -24q-34 0 -53 24q-17 20 -17 48z" />
<glyph unicode="&#xa9;" horiz-adv-x="796" d="M396 102q-87 0 -136 67q-43 59 -43 149q0 85 44 144q50 67 137 68q60 0 121 -35l-24 -51q-59 36 -94 36q-64 0 -99 -61q-27 -48 -27 -109q0 -68 35 -112.5t86 -44.5q53 0 102 28l25 -42q-70 -37 -127 -37zM132 316q0 -110 78 -188t188 -78t188 78t78 188t-78 188t-188 78 t-188 -78t-78 -188zM67 316q0 137 97 234t234 97t234 -97t97 -234t-97 -234t-234 -97t-234 97t-97 234z" />
<glyph unicode="&#xab;" horiz-adv-x="390" d="M419 126l-107 -4l-156 167l156 162l107 -4l-131 -161zM261 126l-107 -4l-155 167l155 162l107 -4l-130 -161z" />
<glyph unicode="&#xac;" horiz-adv-x="613" d="M443 225h-355v118h470v-315h-115v197z" />
<glyph unicode="&#xad;" horiz-adv-x="498" d="M52 348h394v-63h-394v63z" />
<glyph unicode="&#xae;" horiz-adv-x="796" d="M133 316h-1q0 -110 78 -188t188 -78t188 78t78 188t-78 188t-188 78t-187.5 -78t-77.5 -188zM67 316q0 137 97 234t234 97t234 -97t97 -234t-97 -234t-234 -97t-234 97t-97 234zM491 108q-34 34 -76 94q-27 39 -63 98l-29 -1v-185h-57v410q97 2 129 2q112 -1 111 -113 q-1 -91 -98 -109l69 -93q24 -31 85 -90zM379 487l-56 -1v-144h42q51 0 72 20q17 18 17 58q0 68 -75 67z" />
<glyph unicode="&#xaf;" horiz-adv-x="406" d="M105 659h234v-65h-234v65z" />
<glyph unicode="&#xb0;" horiz-adv-x="273" d="M278 582q0 -58 -40 -99t-100 -41t-101.5 41t-41.5 99t41.5 99t101.5 41t100 -41t40 -99zM68 582q0 -30 20 -50t50 -20t48.5 20t18.5 50t-18.5 50t-48.5 20t-50 -20t-20 -50z" />
<glyph unicode="&#xb1;" horiz-adv-x="501" d="M295 89h-93v171h-150v95h150v162h93v-162h151v-95h-151v-171zM65 49h376v-87h-376v87z" />
<glyph unicode="&#xb4;" horiz-adv-x="329" d="M47 626l215 89l32 -78l-214 -83z" />
<glyph unicode="&#xb5;" horiz-adv-x="508" d="M347 29l-9 -10q-46 -51 -93 -51q-40 0 -74 22v-186h-103v682h103v-342q0 -73 89 -73q28 0 53 27.5t25 50.5v338h110v-370q-1 -68 27 -86q19 -13 42 -38l-84 -65q-65 38 -86 101z" />
<glyph unicode="&#xb6;" horiz-adv-x="507" d="M338 0v642h99v-642h-99zM211 0v317q-162 0 -161 166q0 86 41 124q38 35 118 35h101v-642h-99z" />
<glyph unicode="&#xb7;" horiz-adv-x="236" d="M41 413q0 40 25.5 69.5t61.5 29.5q37 0 61.5 -29t24.5 -70q0 -40 -24.5 -69.5t-61.5 -29.5q-36 0 -61.5 29.5t-25.5 69.5z" />
<glyph unicode="&#xb8;" horiz-adv-x="205" d="M11 -176l41 29q30 -35 59 -35q8 0 16 15.5t8 24.5q0 13 -7.5 24.5t-13.5 11.5q-29 0 -36 -16l-57 17l6 109l80 1l-3 -41h3q42 0 68 -31q22 -27 22 -63q0 -39 -19 -70q-24 -39 -68 -39q-71 0 -99 63z" />
<glyph unicode="&#xbb;" horiz-adv-x="393" d="M141 126l132 160l-132 161l109 4l154 -162l-154 -167zM-17 126l132 160l-131 161l108 4l154 -162l-154 -167z" />
<glyph unicode="&#xbf;" horiz-adv-x="459" d="M166 333q13 57 4 156h107q8 -47 8 -94q0 -152 -76 -222q-43 -40 -44 -40q-24 -27 -24 -53q0 -36 20.5 -56t51.5 -20q71 0 105 105l95 -50q-33 -84 -77 -122q-47 -40 -119 -40q-84 0 -136 60q-47 54 -47 124q0 102 76 160q42 32 56 92zM295 608q0 -31 -20.5 -52.5 t-49.5 -21.5t-50 21.5t-21 52.5q0 30 21 51.5t50 21.5t49.5 -21t20.5 -52z" />
<glyph unicode="&#xc0;" horiz-adv-x="580" d="M377 168h-181l-54 -180l-113 14l207 652h102l211 -647l-116 -19zM223 261h127l-63 222zM365 686l-209 90l47 65l210 -96z" />
<glyph unicode="&#xc1;" horiz-adv-x="568" d="M377 168h-181l-54 -180l-113 14l207 652h102l211 -647l-116 -19zM223 261h127l-63 222zM146 746l215 89l62 -78l-214 -83z" />
<glyph unicode="&#xc2;" horiz-adv-x="568" d="M377 168h-181l-54 -180l-113 14l207 652h102l211 -647l-116 -19zM223 261h127l-63 222zM146 661v98l137 106l142 -106v-97l-141 87z" />
<glyph unicode="&#xc3;" horiz-adv-x="580" d="M377 168h-181l-54 -180l-113 14l207 652h102l211 -647l-116 -19zM223 261h127l-63 222zM279 719q-36 23 -44 23q-26 0 -66 -47l-39 78q39 50 105 52q30 1 69 -26t49 -27q13 0 51 31l37 -76q-16 -16 -43.5 -27t-42.5 -11q-29 0 -76 30z" />
<glyph unicode="&#xc4;" horiz-adv-x="580" d="M377 168h-181l-54 -180l-113 14l207 652h102l211 -647l-116 -19zM223 261h127l-63 222zM326 758q0 27 16 47q20 25 54 25q32 0 53 -25q17 -21 17 -47q0 -27 -17 -48q-20 -24 -53 -24q-34 0 -54 24q-16 20 -16 48zM116 758q0 27 16 47q20 25 54 25q33 0 53 -25 q17 -21 17 -47q0 -27 -17 -48q-20 -24 -53 -24q-34 0 -53 24q-17 20 -17 48z" />
<glyph unicode="&#xc5;" horiz-adv-x="580" d="M377 168h-181l-54 -180l-113 14l207 652h102l211 -647l-116 -19zM223 261h127l-63 222zM293 686q-40 0 -65.5 24.5t-25.5 62.5q0 37 25.5 61.5t65.5 24.5t65.5 -24.5t25.5 -61.5q0 -38 -25.5 -62.5t-65.5 -24.5zM293 816q-33 0 -33 -43q0 -44 33 -44t33 44q0 43 -33 43z " />
<glyph unicode="&#xc6;" horiz-adv-x="862" d="M227 271h124l-63 222zM565 391h240v-99h-240v-193h254v-100h-385l-53 169h-186l-55 -180l-117 14l214 652h104l101 -344v331h380v-96h-257v-154z" />
<glyph unicode="&#xc7;" horiz-adv-x="570" d="M348 -219q-64 0 -87 48l37 34q28 -32 51 -32q35 0 35 34q0 39 -33 39q-14 0 -35 -15l-46 21l5 84q-117 15 -181 118q-57 90 -57 217q0 130 67 223q76 107 211 108q91 1 199 -63l-51 -109l-68 45q-43 26 -75 26q-81 0 -127 -85q-37 -69 -37 -156q0 -96 46 -159.5 t110 -63.5q54 0 155 57l55 -94q-68 -37 -100 -48q-42 -16 -90 -18l-3 -39q9 4 25 4q42 0 68 -29q22 -25 22 -60t-25 -61t-71 -26z" />
<glyph unicode="&#xc8;" horiz-adv-x="489" d="M185 391h226v-99l-226 1v-184l240 1v-110h-357v640h359v-105h-242v-144zM334 686l-208 90l46 65l211 -96z" />
<glyph unicode="&#xc9;" horiz-adv-x="469" d="M185 391h226v-99l-226 1v-184l240 1v-110h-357v640h359v-105h-242v-144zM116 756l214 89l62 -78l-214 -83z" />
<glyph unicode="&#xca;" horiz-adv-x="489" d="M185 391h226v-99l-226 1v-184l240 1v-110h-357v640h359v-105h-242v-144zM125 681v88l138 106l142 -106v-87l-142 77z" />
<glyph unicode="&#xcb;" horiz-adv-x="489" d="M185 391h226v-99l-226 1v-184l240 1v-110h-357v640h359v-105h-242v-144zM295 758q0 26 17 47q19 25 53 25q33 0 53 -25q17 -21 17 -47q0 -27 -17 -48q-20 -24 -53 -24q-34 0 -53 24q-17 20 -17 48zM86 758q0 27 16 47q20 25 54 25q32 0 52 -25q17 -21 17 -47 q0 -27 -17 -48q-19 -24 -52 -24q-34 0 -54 24q-16 20 -16 48z" />
<glyph unicode="&#xcc;" horiz-adv-x="215" d="M48 642h129v-642h-129v642zM198 686l-209 90l47 65l210 -96z" />
<glyph unicode="&#xcd;" horiz-adv-x="215" d="M48 642h129v-642h-129v642zM-21 746l215 89l62 -78l-214 -83z" />
<glyph unicode="&#xce;" horiz-adv-x="215" d="M42 642h129v-642h-129v642zM-31 681v88l138 106l142 -106v-87l-142 77z" />
<glyph unicode="&#xcf;" horiz-adv-x="215" d="M48 642h129v-642h-129v642zM148 748q0 26 17 47q19 25 53 25q33 0 53 -25q17 -21 17 -47q0 -27 -17 -48q-20 -24 -53 -24q-34 0 -53 24q-17 20 -17 48zM-61 748q0 27 16 47q20 25 54 25q32 0 52 -25q17 -21 17 -47q0 -27 -17 -48q-19 -24 -52 -24q-34 0 -54 24 q-16 20 -16 48z" />
<glyph unicode="&#xd0;" horiz-adv-x="565" d="M242 353v-102h-63v-144h64q79 0 124 63q40 57 40 143q0 116 -36 173q-41 63 -133 63h-28q-20 -1 -31 -1v-195h63zM59 353v290q81 4 154 4q162 0 239 -75q80 -79 81 -249q1 -153 -78 -237q-81 -88 -236 -88q-25 0 -72 2t-88 2v249h-53v102h53z" />
<glyph unicode="&#xd1;" horiz-adv-x="570" d="M181 395v-394l-113 -2v645h96l248 -385v381h112v-625l-85 -30q-77 142 -258 410zM300 689q-36 23 -44 23q-26 0 -66 -47l-39 78q39 50 105 52q30 1 69 -26t49 -27q13 0 51 31l37 -76q-16 -16 -43.5 -27t-42.5 -11q-29 0 -76 30z" />
<glyph unicode="&#xd2;" horiz-adv-x="644" d="M37 322q0 140 83 232t211 92t207.5 -92t79.5 -232q0 -159 -86 -251q-81 -87 -208 -87q-126 0 -204 87q-83 92 -83 251zM152 313q0 -94 50 -161.5t122 -67.5q73 0 126.5 67.5t53.5 160.5q0 97 -50 166.5t-125 69.5t-126 -69.5t-51 -165.5zM408 686l-209 90l47 65l210 -96z " />
<glyph unicode="&#xd3;" horiz-adv-x="644" d="M37 322q0 140 83 232t211 92t207.5 -92t79.5 -232q0 -159 -86 -251q-81 -87 -208 -87q-126 0 -204 87q-83 92 -83 251zM152 313q0 -94 50 -161.5t122 -67.5q73 0 126.5 67.5t53.5 160.5q0 97 -50 166.5t-125 69.5t-126 -69.5t-51 -165.5zM189 746l215 89l62 -78l-214 -83 z" />
<glyph unicode="&#xd4;" horiz-adv-x="644" d="M37 322q0 140 83 232t211 92t207.5 -92t79.5 -232q0 -159 -86 -251q-81 -87 -208 -87q-126 0 -204 87q-83 92 -83 251zM152 313q0 -94 50 -161.5t122 -67.5q73 0 126.5 67.5t53.5 160.5q0 97 -50 166.5t-125 69.5t-126 -69.5t-51 -165.5zM195 661v98l138 106l142 -106 v-97l-142 87z" />
<glyph unicode="&#xd5;" horiz-adv-x="648" d="M37 322q0 140 83 232t211 92t207.5 -92t79.5 -232q0 -159 -86 -251q-81 -87 -208 -87q-126 0 -204 87q-83 92 -83 251zM152 313q0 -94 50 -161.5t122 -67.5q73 0 126.5 67.5t53.5 160.5q0 97 -50 166.5t-125 69.5t-126 -69.5t-51 -165.5zM300 699q-36 23 -44 23 q-26 0 -66 -47l-39 78q39 50 105 52q30 1 69 -26t49 -27q13 0 51 31l37 -76q-16 -16 -43.5 -27t-42.5 -11q-29 0 -76 30z" />
<glyph unicode="&#xd6;" horiz-adv-x="648" d="M37 322q0 140 83 232t211 92t207.5 -92t79.5 -232q0 -159 -86 -251q-81 -87 -208 -87q-126 0 -204 87q-83 92 -83 251zM152 313q0 -94 50 -161.5t122 -67.5q73 0 126.5 67.5t53.5 160.5q0 97 -50 166.5t-125 69.5t-126 -69.5t-51 -165.5zM369 748q0 27 16 47q20 25 54 25 q32 0 53 -25q17 -21 17 -47q0 -27 -17 -48q-20 -24 -53 -24q-34 0 -54 24q-16 20 -16 48zM159 748q0 27 16 47q20 25 54 25q33 0 53 -25q17 -21 17 -47q0 -27 -17 -48q-20 -24 -53 -24q-34 0 -53 24q-17 20 -17 48z" />
<glyph unicode="&#xd8;" horiz-adv-x="644" d="M32 322q0 140 83 232t211 92q22 0 41 -3l13 44l109 -34l-15 -49q65 -41 102 -115t37 -167q0 -159 -86 -251q-81 -87 -208 -87q-11 0 -31 2l-18 -60l-109 34l18 59q-147 84 -147 303zM318 84h1q73 0 126.5 67.5t53.5 160.5q0 108 -59 178zM147 313q0 -110 66 -181l125 415 q-5 1 -14 1q-76 0 -126.5 -69.5t-50.5 -165.5z" />
<glyph unicode="&#xd9;" horiz-adv-x="571" d="M283 -17q-92 0 -149 59q-66 66 -66 193v405h119v-405q0 -154 98 -154q44 0 74 34q35 41 35 120v405h119v-405q0 -126 -74 -194q-63 -58 -156 -58zM366 686l-209 90l47 65l210 -96z" />
<glyph unicode="&#xda;" horiz-adv-x="571" d="M283 -17q-92 0 -149 59q-66 66 -66 193v405h119v-405q0 -154 98 -154q44 0 74 34q35 41 35 120v405h119v-405q0 -126 -74 -194q-63 -58 -156 -58zM147 746l215 89l62 -78l-214 -83z" />
<glyph unicode="&#xdb;" horiz-adv-x="571" d="M283 -17q-92 0 -149 59q-66 66 -66 193v405h119v-405q0 -154 98 -154q44 0 74 34q35 41 35 120v405h119v-405q0 -126 -74 -194q-63 -58 -156 -58zM145 671v88l138 106l142 -106v-87l-142 77z" />
<glyph unicode="&#xdc;" horiz-adv-x="521" d="M283 -17q-92 0 -149 59q-66 66 -66 193v405h119v-405q0 -154 98 -154q44 0 74 34q35 41 35 120v405h119v-405q0 -126 -74 -194q-63 -58 -156 -58zM316 748q0 26 17 47q19 25 53 25q33 0 53 -25q17 -21 17 -47q0 -27 -17 -48q-20 -24 -53 -24q-34 0 -53 24q-17 20 -17 48z M107 748q0 27 16 47q20 25 54 25q32 0 52 -25q17 -21 17 -47q0 -27 -17 -48q-19 -24 -52 -24q-34 0 -54 24q-16 20 -16 48z" />
<glyph unicode="&#xdd;" horiz-adv-x="503" d="M316 0h-119v271l-171 350l110 33l123 -279l121 279l106 -33l-170 -350v-271zM137 696l214 89l62 -78l-214 -83z" />
<glyph unicode="&#xde;" horiz-adv-x="543" d="M174 180v-288h-114v808h114v-81q65 58 103 58q102 0 163 -87q53 -76 54 -183q1 -141 -63 -212q-56 -62 -152 -62q-27 -1 -53 15zM174 510v-230q15 -22 43.5 -38t56.5 -16q52 0 80 52q24 46 24 117q0 73 -27 123q-32 58 -91 58q-54 0 -86 -66z" />
<glyph unicode="&#xdf;" horiz-adv-x="549" d="M178 61l50 79q29 -41 59 -52q13 -5 47 -5q27 0 44 23q13 18 13 43q0 32 -34 51q-12 6 -60 22q-112 37 -112 157q0 40 35 85q41 53 97 53q22 0 45 -9q3 5 3 16q0 8 -1 22t-1 17q0 23 -33 38q-29 14 -69 14t-69.5 -33t-29.5 -82v-501h-110v501q0 93 52 151q57 64 162 64 q89 0 139 -50.5t50 -137.5q0 -67 -34 -126q-59 22 -83 22q-46 0 -46 -49q0 -18 23 -29q6 -3 53 -18q79 -25 112 -78q23 -37 23 -94q0 -71 -52.5 -120.5t-121.5 -49.5q-57 0 -80 11q-27 13 -71 65z" />
<glyph unicode="&#xe0;" horiz-adv-x="491" d="M374 626l-215 89l-62 -78l214 -83zM299 223q-30 0 -73 -8q-48 -8 -64 -19q-24 -15 -24 -59q0 -28 18 -49.5t42 -21.5q61 0 100 48zM309 54q-42 -37 -58 -48q-33 -22 -66 -22q-60 0 -100 39q-44 43 -44 113q0 83 48 118q31 21 122 39q47 9 85 13v52q0 22 -18 41.5 t-42 19.5q-91 0 -148 -68l-43 61q27 45 89 74q54 26 102 26q71 0 119.5 -46t48.5 -117v-251q0 -6 7.5 -14t15.5 -8q32 0 42 10l11 -64q-61 -33 -98 -33q-15 0 -39 18q-27 21 -34 47z" />
<glyph unicode="&#xe1;" horiz-adv-x="491" d="M126 626l215 89l62 -78l-214 -83zM299 223q-30 0 -73 -8q-48 -8 -64 -19q-24 -15 -24 -59q0 -28 18 -49.5t42 -21.5q61 0 100 48zM309 54q-42 -37 -58 -48q-33 -22 -66 -22q-60 0 -100 39q-44 43 -44 113q0 83 48 118q31 21 122 39q47 9 85 13v52q0 22 -18 41.5t-42 19.5 q-91 0 -148 -68l-43 61q27 45 89 74q54 26 102 26q71 0 119.5 -46t48.5 -117v-251q0 -6 7.5 -14t15.5 -8q32 0 42 10l11 -64q-61 -33 -98 -33q-15 0 -39 18q-27 21 -34 47z" />
<glyph unicode="&#xe2;" horiz-adv-x="491" d="M115 521v88l138 106l142 -106v-87l-142 77zM299 223q-30 0 -73 -8q-48 -8 -64 -19q-24 -15 -24 -59q0 -28 18 -49.5t42 -21.5q61 0 100 48zM309 54q-42 -37 -58 -48q-33 -22 -66 -22q-60 0 -100 39q-44 43 -44 113q0 83 48 118q31 21 122 39q47 9 85 13v52q0 22 -18 41.5 t-42 19.5q-91 0 -148 -68l-43 61q27 45 89 74q54 26 102 26q71 0 119.5 -46t48.5 -117v-251q0 -6 7.5 -14t15.5 -8q32 0 42 10l11 -64q-61 -33 -98 -33q-15 0 -39 18q-27 21 -34 47z" />
<glyph unicode="&#xe3;" horiz-adv-x="491" d="M227 579q-35 23 -44 23q-26 0 -66 -47l-40 78q39 50 105 52q30 1 69.5 -26t49.5 -27q12 0 50 31l38 -76q-16 -16 -43.5 -27t-42.5 -11q-31 0 -76 30zM299 223q-30 0 -73 -8q-48 -8 -64 -19q-24 -15 -24 -59q0 -28 18 -49.5t42 -21.5q61 0 100 48zM309 54q-42 -37 -58 -48 q-33 -22 -66 -22q-60 0 -100 39q-44 43 -44 113q0 83 48 118q31 21 122 39q47 9 85 13v52q0 22 -18 41.5t-42 19.5q-91 0 -148 -68l-43 61q27 45 89 74q54 26 102 26q71 0 119.5 -46t48.5 -117v-251q0 -6 7.5 -14t15.5 -8q32 0 42 10l11 -64q-61 -33 -98 -33q-15 0 -39 18 q-27 21 -34 47z" />
<glyph unicode="&#xe4;" horiz-adv-x="491" d="M285 598q0 27 16 47q20 25 54 25q32 0 53 -25q17 -21 17 -47q0 -27 -17 -48q-20 -24 -53 -24q-34 0 -54 24q-16 20 -16 48zM75 598q0 27 16 47q20 25 54 25q33 0 53 -25q17 -21 17 -47q0 -27 -17 -48q-20 -24 -53 -24q-34 0 -53 24q-17 20 -17 48zM299 223q-30 0 -73 -8 q-48 -8 -64 -19q-24 -15 -24 -59q0 -28 18 -49.5t42 -21.5q61 0 100 48zM309 54q-42 -37 -58 -48q-33 -22 -66 -22q-60 0 -100 39q-44 43 -44 113q0 83 48 118q31 21 122 39q47 9 85 13v52q0 22 -18 41.5t-42 19.5q-91 0 -148 -68l-43 61q27 45 89 74q54 26 102 26 q71 0 119.5 -46t48.5 -117v-251q0 -6 7.5 -14t15.5 -8q32 0 42 10l11 -64q-61 -33 -98 -33q-15 0 -39 18q-27 21 -34 47z" />
<glyph unicode="&#xe5;" horiz-adv-x="491" d="M240 566q-40 0 -65 24.5t-25 62.5q0 37 25 61.5t65 24.5q41 0 66 -24.5t25 -61.5q0 -38 -25 -62.5t-66 -24.5zM240 696q-32 0 -32 -43q0 -44 32 -44q33 0 33 44q0 43 -33 43zM299 223q-30 0 -73 -8q-48 -8 -64 -19q-24 -15 -24 -59q0 -28 18 -49.5t42 -21.5q61 0 100 48z M309 54q-42 -37 -58 -48q-33 -22 -66 -22q-60 0 -100 39q-44 43 -44 113q0 83 48 118q31 21 122 39q47 9 85 13v52q0 22 -18 41.5t-42 19.5q-91 0 -148 -68l-43 61q27 45 89 74q54 26 102 26q71 0 119.5 -46t48.5 -117v-251q0 -6 7.5 -14t15.5 -8q32 0 42 10l11 -64 q-61 -33 -98 -33q-15 0 -39 18q-27 21 -34 47z" />
<glyph unicode="&#xe6;" horiz-adv-x="775" d="M541 429q-54 0 -79 -27q-19 -20 -35 -77h188v1q0 103 -74 103zM281 -1q-40 -15 -91 -15q-62 0 -104 39q-45 42 -45 113q0 83 51 121q33 24 124 46q39 9 88 16v39q0 21 -18 36t-43 15q-46 0 -130 -68l-61 81q41 37 102 65q57 25 89 25q90 0 140 -66q64 61 164 61 q77 0 128 -55t51 -148v-65h-300q2 -171 125 -171q54 0 113 78l54 -71q-70 -87 -174 -87q-114 0 -175 70q-53 -46 -88 -59zM251 205q-55 -10 -69 -16q-35 -16 -35 -55q-1 -54 54 -54q33 0 64 14q39 17 39 46v74z" />
<glyph unicode="&#xe7;" horiz-adv-x="483" d="M392 -132q0 -35 -24 -60q-27 -27 -73 -27q-63 0 -86 48l37 34q28 -32 50 -32q36 0 36 34q0 39 -34 39q-14 0 -34 -15l-47 21l4 82h4q-103 18 -152 113q-34 65 -34 137q0 134 78 207q65 63 158 62q57 0 152 -64l-33 -69q-65 53 -128 53q-54 0 -84 -64q-26 -54 -26 -128 q0 -77 32.5 -124.5t84.5 -47.5q59 0 130 64l45 -59q-70 -80 -165 -84h-4l-3 -35q9 4 25 4q42 0 68 -29q23 -25 23 -60zM279 -12l-3 -35q9 4 25 4q42 0 68 -29q23 -25 23 -60t-24 -60q-27 -27 -73 -27q-63 0 -86 48l37 34q28 -32 50 -32q36 0 36 34q0 39 -34 39 q-14 0 -34 -15l-47 21l5 82z" />
<glyph unicode="&#xe8;" horiz-adv-x="497" d="M404 626l-215 89l-42 -78l214 -83zM275 68q65 -1 130 63l45 -61q-52 -50 -91 -67q-35 -15 -91 -15q-131 0 -191 108q-38 70 -38 151q0 113 60 186q64 77 173 77q75 0 126 -50q56 -55 56 -147v-75h-296q2 -169 117 -170zM345 323q5 109 -80 109q-34 0 -60 -26 q-31 -30 -40 -83h180z" />
<glyph unicode="&#xe9;" horiz-adv-x="497" d="M126 626l215 89l32 -78l-214 -83zM275 68q65 -1 130 63l45 -61q-52 -50 -91 -67q-35 -15 -91 -15q-131 0 -191 108q-38 70 -38 151q0 113 60 186q64 77 173 77q75 0 126 -50q56 -55 56 -147v-75h-296q2 -169 117 -170zM345 323q5 109 -80 109q-34 0 -60 -26 q-31 -30 -40 -83h180z" />
<glyph unicode="&#xea;" horiz-adv-x="497" d="M135 561v88l138 106l142 -106v-87l-142 77zM275 68q65 -1 130 63l45 -61q-52 -50 -91 -67q-35 -15 -91 -15q-131 0 -191 108q-38 70 -38 151q0 113 60 186q64 77 173 77q75 0 126 -50q56 -55 56 -147v-75h-296q2 -169 117 -170zM345 323q5 109 -80 109q-34 0 -60 -26 q-31 -30 -40 -83h180z" />
<glyph unicode="&#xeb;" horiz-adv-x="497" d="M285 628q0 27 16 47q20 25 54 25q33 0 53 -25q17 -21 17 -47q0 -27 -17 -48q-20 -24 -53 -24q-34 0 -53 24q-17 20 -17 48zM75 628q0 26 17 47q19 25 53 25q33 0 53 -25q17 -21 17 -47q0 -27 -17 -48q-20 -24 -53 -24q-34 0 -53 24q-17 20 -17 48zM275 68q65 -1 130 63 l45 -61q-52 -50 -91 -67q-35 -15 -91 -15q-131 0 -191 108q-38 70 -38 151q0 113 60 186q64 77 173 77q75 0 126 -50q56 -55 56 -147v-75h-296q2 -169 117 -170zM345 323q5 109 -80 109q-34 0 -60 -26q-31 -30 -40 -83h180z" />
<glyph unicode="&#xec;" horiz-adv-x="249" d="M63 495h107v-495h-107v495zM264 626l-215 89l-62 -78l214 -83z" />
<glyph unicode="&#xed;" horiz-adv-x="234" d="M-10 626l214 89l42 -78l-214 -83zM63 495h107v-495h-107v495z" />
<glyph unicode="&#xee;" horiz-adv-x="210" d="M63 495h107v-495h-107v495zM-25 521v88l138 106l142 -106v-87l-142 77z" />
<glyph unicode="&#xef;" horiz-adv-x="207" d="M63 495h107v-495h-107v495zM155 628q0 27 16 47q20 25 54 25q33 0 53 -25q17 -21 17 -47q0 -27 -17 -48q-20 -24 -53 -24q-34 0 -53 24q-17 20 -17 48zM-55 628q0 26 17 47q19 25 53 25q33 0 53 -25q17 -21 17 -47q0 -27 -17 -48q-20 -24 -53 -24q-34 0 -53 24 q-17 20 -17 48z" />
<glyph unicode="&#xf0;" horiz-adv-x="579" d="M281 448q-59 0 -94 -58q-32 -54 -32 -139q0 -71 36 -131q39 -64 92 -64q64 0 98 60q29 52 30 132q1 98 1 97q-75 103 -131 103zM291 619q-13 20 -56 64l75 53q59 -58 99 -117h134v-73h-75q25 -55 42 -139q16 -78 15 -128q-4 -296 -262 -296q-105 0 -170 87 q-57 76 -57 179q0 139 76 210q66 62 171 62q26 0 110 -57q0 22 -23 51l-27 31h-140v73h88z" />
<glyph unicode="&#xf1;" horiz-adv-x="486" d="M248 579q-35 23 -44 23q-26 0 -66 -47l-40 78q39 50 105 52q30 1 69.5 -26t49.5 -27q12 0 50 31l38 -76q-16 -16 -43.5 -27t-42.5 -11q-31 0 -76 30zM342 320q0 50 -18 77q-15 24 -39 24q-37 0 -76 -42.5t-39 -75.5v-303h-107v496h107v-89q61 104 123 104q63 0 108 -49 q48 -52 48 -130v-332h-107v320z" />
<glyph unicode="&#xf2;" horiz-adv-x="543" d="M387 556l-209 90l47 65l210 -96zM39 252q0 128 81 200q67 60 156 60q88 0 153 -60q78 -71 78 -200q0 -88 -45 -161q-63 -102 -187 -102q-135 0 -196 103q-40 68 -40 160zM155 246q0 -72 29 -122q32 -57 87 -57q57 0 90 58q30 51 30 126q0 73 -27 124q-31 58 -84 58 q-61 0 -95 -59q-30 -52 -30 -128z" />
<glyph unicode="&#xf3;" horiz-adv-x="543" d="M168 626l215 89l62 -78l-214 -83zM39 252q0 128 81 200q67 60 156 60q88 0 153 -60q78 -71 78 -200q0 -88 -45 -161q-63 -102 -187 -102q-135 0 -196 103q-40 68 -40 160zM155 246q0 -72 29 -122q32 -57 87 -57q57 0 90 58q30 51 30 126q0 73 -27 124q-31 58 -84 58 q-61 0 -95 -59q-30 -52 -30 -128z" />
<glyph unicode="&#xf4;" horiz-adv-x="543" d="M145 521v88l138 106l142 -106v-87l-142 77zM39 252q0 128 81 200q67 60 156 60q88 0 153 -60q78 -71 78 -200q0 -88 -45 -161q-63 -102 -187 -102q-135 0 -196 103q-40 68 -40 160zM155 246q0 -72 29 -122q32 -57 87 -57q57 0 90 58q30 51 30 126q0 73 -27 124 q-31 58 -84 58q-61 0 -95 -59q-30 -52 -30 -128z" />
<glyph unicode="&#xf5;" horiz-adv-x="543" d="M279 579q-36 23 -44 23q-26 0 -66 -47l-39 78q39 50 105 52q30 1 69 -26t49 -27q13 0 51 31l37 -76q-16 -16 -43.5 -27t-42.5 -11q-29 0 -76 30zM39 252q0 128 81 200q67 60 156 60q88 0 153 -60q78 -71 78 -200q0 -88 -45 -161q-63 -102 -187 -102q-135 0 -196 103 q-40 68 -40 160zM155 246q0 -72 29 -122q32 -57 87 -57q57 0 90 58q30 51 30 126q0 73 -27 124q-31 58 -84 58q-61 0 -95 -59q-30 -52 -30 -128z" />
<glyph unicode="&#xf6;" horiz-adv-x="543" d="M315 628q0 27 16 47q20 25 54 25q33 0 53 -25q17 -21 17 -47q0 -27 -17 -48q-20 -24 -53 -24q-34 0 -53 24q-17 20 -17 48zM105 628q0 26 17 47q19 25 53 25q33 0 53 -25q17 -21 17 -47q0 -27 -17 -48q-20 -24 -53 -24q-34 0 -53 24q-17 20 -17 48zM39 252q0 128 81 200 q67 60 156 60q88 0 153 -60q78 -71 78 -200q0 -88 -45 -161q-63 -102 -187 -102q-135 0 -196 103q-40 68 -40 160zM155 246q0 -72 29 -122q32 -57 87 -57q57 0 90 58q30 51 30 126q0 73 -27 124q-31 58 -84 58q-61 0 -95 -59q-30 -52 -30 -128z" />
<glyph unicode="&#xf7;" horiz-adv-x="496" d="M190 480q0 33 21 56t51 23q31 0 52 -23t21 -56q0 -32 -21 -55t-52 -23q-30 0 -51 23t-21 55zM52 360h404v-100h-404v100zM190 142q0 32 21 55t51 23q31 0 52 -23t21 -55q0 -33 -21 -56t-52 -23q-30 0 -51 23t-21 56z" />
<glyph unicode="&#xf8;" horiz-adv-x="546" d="M416 549l-21 -71q112 -69 112 -226q0 -88 -45 -161q-63 -102 -187 -102q-18 0 -26 1l-19 -64l-107 34l19 65q-58 38 -84 114q-19 53 -19 113q0 128 81 200q67 60 156 60h11l21 71zM263 432q-53 -8 -82 -66q-26 -50 -26 -120q0 -60 21 -107zM391 251q0 72 -27 124 l-92 -308q57 1 90 58q29 52 29 126z" />
<glyph unicode="&#xf9;" horiz-adv-x="482" d="M355 556l-208 90l46 65l211 -96zM349 0q-3 27 -10 71q-69 -89 -124 -89q-62 0 -106 49q-46 53 -46 135v329h107v-326q0 -94 52 -94q36 0 78 46q39 42 39 68v306h107v-495h-97z" />
<glyph unicode="&#xfa;" horiz-adv-x="482" d="M126 626l215 89l62 -78l-214 -83zM349 0q-3 27 -10 71q-69 -89 -124 -89q-62 0 -106 49q-46 53 -46 135v329h107v-326q0 -94 52 -94q36 0 78 46q39 42 39 68v306h107v-495h-97z" />
<glyph unicode="&#xfb;" horiz-adv-x="482" d="M125 521v88l138 106l142 -106v-87l-142 77zM349 0q-3 27 -10 71q-69 -89 -124 -89q-62 0 -106 49q-46 53 -46 135v329h107v-326q0 -94 52 -94q36 0 78 46q39 42 39 68v306h107v-495h-97z" />
<glyph unicode="&#xfc;" horiz-adv-x="482" d="M295 628q0 27 16 47q20 25 54 25q33 0 53 -25q17 -21 17 -47q0 -27 -17 -48q-20 -24 -53 -24q-34 0 -53 24q-17 20 -17 48zM85 628q0 26 17 47q19 25 53 25q33 0 53 -25q17 -21 17 -47q0 -27 -17 -48q-20 -24 -53 -24q-34 0 -53 24q-17 20 -17 48zM349 0q-3 27 -10 71 q-69 -89 -124 -89q-62 0 -106 49q-46 53 -46 135v329h107v-326q0 -94 52 -94q36 0 78 46q39 42 39 68v306h107v-495h-97z" />
<glyph unicode="&#xfe;" horiz-adv-x="522" d="M203 -4q-6 3 -27 17l-3 2v-210h-113v880h113v-253q44 42 55 50q34 26 62 26q97 0 153 -74q49 -68 50 -171q1 -143 -64 -216q-58 -65 -157 -65q-41 0 -69 14zM173 302v-191q14 -13 45.5 -25.5t53.5 -12.5q52 0 80 57q25 50 25 123q0 66 -22 109q-26 51 -78 51 q-26 0 -59 -39q-26 -32 -45 -72z" />
<glyph unicode="&#xff;" horiz-adv-x="467" d="M119 -196q-25 0 -97 24l32 95q37 -20 70 -20q30 0 55 58l29 87l-180 425l106 30l127 -366l108 364l100 -25l-199 -554q-17 -47 -53 -79q-43 -39 -98 -39zM273 598q0 26 17 47q19 25 53 25q33 0 53 -25q17 -21 17 -47q0 -27 -17 -48q-20 -24 -53 -24q-34 0 -53 24 q-17 20 -17 48zM64 598q0 27 16 47q20 25 54 25q32 0 52 -25q17 -21 17 -47q0 -27 -17 -48q-19 -24 -52 -24q-34 0 -54 24q-16 20 -16 48z" />
<glyph unicode="&#x152;" horiz-adv-x="1028" d="M585 157q-96 -160 -249 -160q-129 0 -210 90q-84 94 -84 253q0 140 84 228.5t216 88.5q150 0 243 -147v129h379v-105h-287v-144h278v-99h-278v-184h287v-107h-379v157zM161 331q0 -95 51 -164t124 -69q74 0 128 69t54 164q0 96 -49.5 161.5t-127.5 65.5t-129 -66 t-51 -161z" />
<glyph unicode="&#x153;" horiz-adv-x="1033" d="M209 246q0 -70 30 -118q33 -52 91 -52q60 0 94 53q30 49 30 122q0 72 -29 119q-31 53 -86 53q-64 0 -99 -54q-31 -48 -31 -123zM736 68q70 0 126 80l62 -80q-86 -80 -195 -80q-81 0 -129 37q-35 27 -62 84q-65 -120 -204 -120q-140 0 -203 103q-42 68 -42 160 q0 128 84 200q69 60 162 60q60 0 114 -29q61 -32 94 -93q64 117 200 117q78 0 127 -49q54 -52 54 -145v-75h-295q6 -170 107 -170zM820 323q-2 40 -21 70q-23 36 -63 36q-87 0 -94 -106h178z" />
<glyph unicode="&#x178;" horiz-adv-x="482" d="M316 0h-119v271l-171 350l110 33l123 -279l121 279l106 -33l-170 -350v-271zM306 758q0 27 16 47q20 25 54 25q32 0 53 -25q17 -21 17 -47q0 -27 -17 -48q-20 -24 -53 -24q-34 0 -54 24q-16 20 -16 48zM96 758q0 27 16 47q20 25 54 25q33 0 53 -25q17 -21 17 -47 q0 -27 -17 -48q-20 -24 -53 -24q-34 0 -53 24q-17 20 -17 48z" />
<glyph unicode="&#x2c6;" horiz-adv-x="337" d="M35 521v88l138 106l142 -106v-87l-142 77z" />
<glyph unicode="&#x2dc;" horiz-adv-x="375" d="M190 579q-35 23 -44 23q-26 0 -66 -47l-40 78q41 50 106 52q30 1 68.5 -26t49.5 -27q14 0 50 31l38 -76q-16 -16 -43.5 -27t-42.5 -11q-31 0 -76 30z" />
<glyph unicode="&#x2000;" horiz-adv-x="437" />
<glyph unicode="&#x2001;" horiz-adv-x="875" />
<glyph unicode="&#x2002;" horiz-adv-x="437" />
<glyph unicode="&#x2003;" horiz-adv-x="875" />
<glyph unicode="&#x2004;" horiz-adv-x="291" />
<glyph unicode="&#x2005;" horiz-adv-x="218" />
<glyph unicode="&#x2006;" horiz-adv-x="145" />
<glyph unicode="&#x2007;" horiz-adv-x="145" />
<glyph unicode="&#x2008;" horiz-adv-x="109" />
<glyph unicode="&#x2009;" horiz-adv-x="175" />
<glyph unicode="&#x200a;" horiz-adv-x="48" />
<glyph unicode="&#x2011;" horiz-adv-x="380" d="M50 360h280v-93h-280v93z" />
<glyph unicode="&#x2013;" d="M34 363h432v-71h-432v71z" />
<glyph unicode="&#x2014;" horiz-adv-x="1000" d="M27 363h946v-71h-946v71z" />
<glyph unicode="&#x2018;" horiz-adv-x="138" d="M71 675l66 -3q-19 -41 -26 -93q-1 -10 -5 -86h-105q0 36 24 94q21 53 46 88z" />
<glyph unicode="&#x2019;" horiz-adv-x="138" d="M67 493l-66 13q19 41 26 93q1 10 5 86h105q0 -36 -24 -99q-22 -59 -46 -93z" />
<glyph unicode="&#x201a;" horiz-adv-x="214" d="M67 -107l-66 13q19 41 26 93q1 10 5 86h105q0 -36 -24 -99q-22 -59 -46 -93z" />
<glyph unicode="&#x201c;" horiz-adv-x="429" d="M321 675l66 -3q-19 -41 -26 -93q-1 -10 -5 -86h-105q0 36 24 94q21 53 46 88zM121 675l66 -3q-19 -41 -26 -93q-1 -10 -5 -86h-105q0 36 24 94q21 53 46 88z" />
<glyph unicode="&#x201d;" horiz-adv-x="429" d="M117 483l-66 13q19 41 26 93q1 10 5 86h105q0 -36 -24 -99q-22 -59 -46 -93zM317 483l-66 13q19 41 26 93q1 10 5 86h105q0 -36 -24 -99q-22 -59 -46 -93z" />
<glyph unicode="&#x201e;" horiz-adv-x="417" d="M117 -117l-66 13q19 41 26 93q1 10 5 86h105q0 -36 -24 -99q-22 -59 -46 -93zM317 -117l-66 13q19 41 26 93q1 10 5 86h105q0 -36 -24 -99q-22 -59 -46 -93z" />
<glyph unicode="&#x2022;" horiz-adv-x="282" d="M140 190q-38 0 -65 28.5t-27 72.5q0 43 27 71.5t65 28.5q37 0 64 -28.5t27 -71.5t-27 -72t-64 -29z" />
<glyph unicode="&#x2026;" horiz-adv-x="900" d="M603 53q0 42 27 67q24 22 60 22t61 -23.5t25 -65.5q0 -41 -25 -65t-61 -24q-35 0 -61 24t-26 65zM364 53q0 42 27 67q24 22 60 22t61 -23.5t25 -65.5q0 -41 -25 -65t-61 -24q-35 0 -61 24t-26 65zM125 53q0 42 27 67q24 22 60 22t61 -23.5t25 -65.5q0 -41 -25 -65 t-61 -24q-35 0 -61 24t-26 65z" />
<glyph unicode="&#x202f;" horiz-adv-x="175" />
<glyph unicode="&#x2039;" horiz-adv-x="319" d="M297 126l-102 -4l-146 167l146 162l102 -4l-124 -161z" />
<glyph unicode="&#x203a;" horiz-adv-x="317" d="M30 126l123 160l-123 161l101 4l146 -162l-146 -167z" />
<glyph unicode="&#x205f;" horiz-adv-x="218" />
<glyph unicode="&#x2122;" horiz-adv-x="641" d="M174 315h-64v275h-95v52h248v-52h-89v-275zM555 514l-76 -199h-54l-77 201v-201h-60v329h78l89 -229l89 229h75v-329h-64v199z" />
</font>
</defs>
</svg>
