<?xml version="1.0" standalone="no"?>
<!DOCTYPE svg PUBLIC "-//W3C//DTD SVG 1.1//EN" "http://www.w3.org/Graphics/SVG/1.1/DTD/svg11.dtd" >
<svg xmlns="http://www.w3.org/2000/svg">
<metadata>
This is a custom SVG webfont generated by Font Squirrel.
Copyright   : Copyright (c) Andrew Paglinawan, 2008. All rights reserved.
Designer    : Andrew Paglinawan
Foundry     : Andrew Paglinawan
</metadata>
<defs>
<font id="webfont" horiz-adv-x="613" >
<font-face units-per-em="1000" ascent="800" descent="-200" />
<missing-glyph horiz-adv-x="300" />
<glyph unicode=" "  horiz-adv-x="300" />
<glyph unicode="&#x09;" horiz-adv-x="300" />
<glyph unicode="&#xa0;" horiz-adv-x="300" />
<glyph unicode="!" horiz-adv-x="252" d="M228 702q5 -1 8.5 -5.5t1.5 -8.5l-91 -521q-2 -10 -13 -10h-2q-5 1 -8 5.5t-2 9.5l91 520q3 12 15 10zM113 52q13 -4 11 -15l-5 -24q-2 -11 -12 -11q-2 0 -2 1q-13 2 -11 14l5 24q2 13 14 11z" />
<glyph unicode="&#x22;" horiz-adv-x="410" d="M115 693q3 -5 -5 -9q-17 -5 -24 -21q2 1 6 1q11 0 18.5 -7t7.5 -17t-8 -18t-18 -8q-18 0 -23 18q-1 0 -1 2v6v3v1q0 45 38 55h3q6 0 6 -6zM189 693q3 -5 -5 -9q-17 -5 -24 -21q2 1 6 1q11 0 18.5 -7t7.5 -17t-8 -18t-18 -8q-18 0 -23 18q-1 0 -1 2v2v4v4q0 45 38 55h3 q6 0 6 -6z" />
<glyph unicode="#" horiz-adv-x="833" d="M159 28l58 172h-111q-8 0 -12 0.5t-7.5 3.5t-2.5 9q3 14 27 14h119l86 256h-120q-8 0 -12 0.5t-7.5 3.5t-2.5 9q2 14 27 14h128l58 175q1 2 2.5 6t2 5.5t2 4t3 3.5t4 2t5.5 1q17 0 7 -29l-56 -168h227l58 175q1 2 2.5 6t2 5.5t2 4t3 3.5t4 2t5.5 1q17 0 7 -29l-56 -168 h110q8 0 12 -0.5t7 -3.5t2 -9q-2 -14 -26 -14h-118l-86 -256h119q8 0 12 -0.5t7 -3.5t2 -9q-2 -14 -26 -14h-127l-61 -179q0 -1 -1 -4.5t-1.5 -4.5t-1.5 -3.5t-1.5 -3.5t-2 -2.5t-3 -2t-3.5 -1t-4 -0.5q-17 0 -7 29l58 172h-227l-61 -179q0 -1 -1 -4.5t-1.5 -4.5t-1.5 -3.5 t-1.5 -3.5t-2 -2.5t-3 -2t-3.5 -1t-4 -0.5q-17 0 -7 29zM258 227h227l86 256h-227z" />
<glyph unicode="$" horiz-adv-x="667" d="M579 187q-15 -79 -97.5 -133.5t-185.5 -56.5l-4 -24q-4 -22 -16 -22q-10 0 -7 17q1 3 1 5l4 24q-125 8 -223 101q-8 8 1 17q9 8 16 1q95 -88 210 -96l59 336q-94 19 -143 57q-62 46 -49 117t87 121t167 55l5 27q3 20 10 21q2 1 4 1q12 0 8 -22l-5 -27q40 -1 79.5 -15.5 t61 -28.5t53.5 -38q8 -6 0 -16q-7 -9 -16 -3q-31 24 -52 37t-57 26.5t-73 14.5l-54 -308q110 -23 164 -62q65 -49 52 -126zM210 432q44 -34 132 -53l53 304q-82 -5 -147 -46q-69 -45 -80 -107q-10 -58 42 -98zM468 70q76 49 88 117q11 63 -45 107q-47 36 -152 58l-59 -332 q94 1 168 50z" />
<glyph unicode="%" horiz-adv-x="833" d="M211 351q-67 0 -100.5 52.5t-21.5 124.5l1 2q12 73 65 126t121 53q67 0 100.5 -52.5t21.5 -124.5v-2q-13 -73 -66 -126t-121 -53zM100 17l12 14l603 663q7 7 16 7q5 0 4 -7q1 -2 -17 -23l-603 -662q-1 0 -2 -1.5t-3 -2.5t-4 -1q-7 0 -8.5 3t0.5 7zM554 -7 q-67 0 -100.5 52.5t-21.5 124.5v2q13 73 66 126t121 53q67 0 100.5 -52.5t21.5 -124.5l-1 -2q-12 -73 -65 -126t-121 -53zM215 363q55 0 100.5 47.5t57.5 117.5l1 2q12 71 -18.5 119t-83.5 48q-54 0 -100 -48.5t-58 -116.5v-2q-13 -71 17.5 -119t83.5 -48zM558 6 q54 0 100.5 47.5t58.5 116.5v2q12 70 -19 118t-83 48q-54 0 -101 -48.5t-58 -115.5l-1 -2q-12 -70 19 -118t84 -48z" />
<glyph unicode="&#x26;" horiz-adv-x="696" d="M576 415q5 0 9 -3.5t4 -8.5v-10q1 -55 -35 -86q-21 -17 -51 -22q2 -14 2 -21q0 -13 -4 -39q-16 -93 -92.5 -157.5t-169.5 -65.5q-81 0 -137 54q-53 55 -53 134q0 20 3 39q11 61 50 112t96 81q-35 38 -35 92q0 10 2 28q13 67 67.5 113.5t121.5 46.5q60 0 99 -39 q39 -37 39 -97q0 -13 -3 -28q-2 -12 -14 -10q-13 2 -11 14q2 9 2 24q0 48 -31 79.5t-81 31.5q-57 0 -105.5 -41t-58.5 -98q-2 -16 -2 -24q0 -54 39 -86q11 -7 2 -18h-1l-4 -4q-56 -24 -96.5 -73t-50.5 -108q-3 -18 -3 -35q1 -71 46.5 -116.5t118.5 -45.5q83 -1 153 58.5 t84 142.5q3 18 3 35q0 13 -1 19h-5q-11 1 -33 1q-105 0 -146 -49q-25 -30 -25 -69v-8q2 -12 -11 -14h-2q-10 0 -12 11q-1 4 -1 11q0 48 31 85q52 59 166 59q11 0 35 -2h6q35 1 58.5 20.5t24.5 64.5v8q0 12 12 14z" />
<glyph unicode="'" horiz-adv-x="230" d="M48 461l72 215q9 26 33 26h19q16 0 13 -17q-2 -6 -10 -24l-96 -201q-10 -18 -21 -18q-16 0 -10 19z" />
<glyph unicode="(" horiz-adv-x="430" d="M332 702q12 0 12 -12q0 -13 -12 -13q-82 0 -142 -93q-56 -89 -81 -234q-13 -78 -13 -134q0 -90 28 -139q31 -49 89 -49q13 0 13 -13t-13 -13h-1q-73 0 -109 63q-32 53 -32 151q0 67 13 139q28 153 85 243q66 104 163 104z" />
<glyph unicode=")" horiz-adv-x="430" d="M302 640q32 -53 32 -151q0 -63 -14 -139q-26 -151 -84 -243q-68 -105 -163 -105q-13 0 -13 13t13 13q81 0 141 93q55 86 81 234q14 75 14 134q0 89 -29 138q-30 50 -88 50q-13 0 -13 13q0 12 13 12q74 1 110 -62z" />
<glyph unicode="*" horiz-adv-x="430" d="M296 433l-68 78l-18 -112q-2 -15 -16 -15q-15 0 -13 15l18 113l-91 -79q-8 -5 -13 -5q-6 0 -6 5q-11 8 2 19l90 78h-110q-7 0 -10 4.5t-1 10.5q0 14 16 14h112l-67 79q-10 10 4 20q10 9 19 0l66 -79l18 111q2 14 17 14q14 0 12 -14l-18 -111l93 79q10 8 20 0 q4 -11 -4 -20l-93 -79h112q13 0 13 -14q-6 -15 -18 -15h-111l67 -78q8 -11 -2 -19q-8 -5 -13 -5q-7 0 -7 5z" />
<glyph unicode="+" horiz-adv-x="620" d="M250 116l41 211h-211q-18 0 -14 18q3 17 21 17h211l41 212q3 17 22 17q6 0 10 -5t3 -12l-41 -212h212q6 0 10.5 -5t3.5 -12t-8 -12.5t-13 -5.5h-212l-41 -211q-4 -18 -20 -18q-8 0 -12.5 5t-2.5 13z" />
<glyph unicode="," horiz-adv-x="230" d="M40 -90q2 9 10 13q56 29 60 77q-26 8 -21 35l3 21q2 14 13.5 23.5t25.5 9.5t21.5 -9.5t5.5 -23.5l-4 -25q-12 -77 -44 -104q-15 -13 -33 -22.5t-25 -9.5q-15 0 -12 15z" />
<glyph unicode="-" horiz-adv-x="408" d="M76 340q-10 0 -10 9q0 11 10 11h228q9 0 9 -11q0 -9 -9 -9h-228z" />
<glyph unicode="&#xad;" horiz-adv-x="408" d="M76 340q-10 0 -10 9q0 11 10 11h228q9 0 9 -11q0 -9 -9 -9h-228z" />
<glyph unicode="." horiz-adv-x="230" d="M82 26q1 14 12.5 24t25.5 10t23 -10t7 -24t-13.5 -24t-25.5 -10t-22.5 10t-6.5 24z" />
<glyph unicode="/" horiz-adv-x="500" d="M3 1q-11 5 -6 17l283 672q2 5 7 7t9 0q12 -4 8 -16l-285 -673q-2 -8 -11 -8q-4 0 -5 1z" />
<glyph unicode="0" horiz-adv-x="710" d="M371 700q85 0 137 -77q50 -75 50 -187q0 -39 -8 -89q-26 -144 -112 -245t-186 -102h-1q-85 0 -136 77q-50 73 -50 187q0 47 8 88q26 144 111.5 245.5t186.5 102.5zM525 352q7 41 7 84q0 104 -45 172q-46 66 -116 66h-2q-87 0 -167.5 -96t-103.5 -231q-8 -46 -8 -83 q0 -106 46 -173q46 -66 116 -66q87 -1 168 95t105 232z" />
<glyph unicode="1" horiz-adv-x="335" d="M213 690v-3v-1l-119 -675q-2 -10 -13 -10h-2q-5 1 -8 5.5t-2 9.5l114 649l-133 -72q-2 -1 -6 -1q-8 0 -11 6q-5 11 5 18l156 83q1 1 2 1t2 1h3h1l1 -1q2 0 3 -1q1 0 2 -1l1 -1l2 -2v-1l1 -1q0 -2 1 -3z" />
<glyph unicode="2" horiz-adv-x="590" d="M373 701q101 0 155 -75q36 -50 36 -113q0 -56 -28 -110t-78 -93l-363 -284h371q13 0 13 -13q0 -12 -13 -12h-404h-2h-2q-6 0 -10 5q-8 9 2 17l393 307q46 35 70.5 84t24.5 99q0 56 -30 98q-47 64 -135 64q-78 0 -143 -52l-42 -32q-9 -7 -18 2q-7 11 3 18l41 32 q73 58 159 58z" />
<glyph unicode="3" horiz-adv-x="610" d="M333 465q83 -8 130 -67q57 -67 39 -164q-16 -97 -97 -166q-82 -68 -177 -68q-98 0 -153 68q-7 9 3 18t19 0q49 -60 135 -60q87 0 158 61q72 61 86 147q16 84 -34 146q-50 60 -135 60q-8 0 -11 6l-1 1q-8 10 3 19l239 208h-309q-5 0 -8 4t-2 9q2 13 15 13h339q5 0 8 -4 t2 -9q0 -2 -2 -6t-4 -5z" />
<glyph unicode="4" horiz-adv-x="664" d="M589 687q2 -2 0 -3l1 -1l-91 -511h60q13 0 13 -13q0 -12 -13 -12h-64l-24 -139q-3 -10 -13 -10h-2q-5 1 -8 5.5t-2 9.5l23 134h-406h-1h-1q-4 0 -9 3q-9 9 0 18l516 526q1 0 1 1q1 0 1 0.5t1 0.5t1 0.5t1 0.5q2 0 2 1h3h1l1 -1q2 0 3 -1q1 0 1 -0.5t1 -0.5l1 -1l1 -1 q1 -1 1 -2t0.5 -1t0.5 -1v-2zM91 172h383l83 475z" />
<glyph unicode="5" horiz-adv-x="605" d="M558 701q13 0 13 -13t-13 -13h-330l-75 -253q69 45 145 45q97 0 154 -69q43 -53 43 -125q0 -56 -26 -110t-74 -95q-79 -67 -176 -67h-1q-96 0 -153 69q-9 9 2 18q9 9 18 -2q48 -59 134 -59t159 61q43 38 67 87t24 98q0 64 -38 108q-48 60 -133 60q-88 0 -159 -62 q-11 -7 -19 2l-3 6v7l88 296q2 6 8 8q3 3 6 3h339z" />
<glyph unicode="6" horiz-adv-x="642" d="M332 455q84 0 138 -54q55 -53 55 -135q0 -12 -4 -40l-12 2l12 -2q-17 -94 -94 -159t-171 -65q-84 0 -138 54q-54 52 -54 135v16v2q14 174 105 314q112 172 288 179q13 0 13 -13q2 -11 -12 -13q-161 -5 -267 -167q-49 -73 -77 -170q39 53 97 84.5t121 31.5zM496 230 q3 20 3 36q0 70 -46.5 116.5t-120.5 47.5h-1q-83 0 -154 -60t-85 -144q-3 -18 -3 -35q0 -71 46.5 -117.5t120.5 -46.5q84 0 155 60t85 143z" />
<glyph unicode="7" horiz-adv-x="587" d="M493 680v-1l-404 -674q-3 -6 -10 -6q-5 0 -7 1q-11 7 -4 18l391 655h-368q-13 0 -13 13t13 13h391l1 -1h2q2 0 2 -1h1l1 -1l2 -2l2 -2q0 -1 1 -2v-3v-1v-1v-2q-1 -1 -1 -3z" />
<glyph unicode="8" horiz-adv-x="630" d="M378 434q41 -11 76 -44q53 -51 53 -132q0 -20 -3 -39q-17 -92 -92.5 -156t-167.5 -64q-81 0 -136 53q-53 51 -53 132q0 20 3 39q14 76 70.5 135t131.5 78q-16 8 -27 19q-33 33 -33 83q0 8 2 24q10 57 57 96.5t104 40.5q51 0 85 -34t33 -83q0 -16 -2 -24q-7 -41 -34.5 -74 t-66.5 -50zM225 538q0 -39 26 -65t68 -26q47 -1 87.5 33.5t48.5 81.5q2 14 2 20q-1 40 -26.5 65.5t-67.5 26.5q-47 0 -88 -34.5t-48 -81.5l-13 2l13 -2q-2 -7 -2 -20zM479 223q3 18 3 35q0 69 -46 114.5t-118 45.5q-82 1 -151.5 -58t-83.5 -141l-12 2l12 -2q-3 -18 -3 -35 q0 -69 46 -114.5t118 -45.5q82 -1 151.5 58t83.5 141z" />
<glyph unicode="9" horiz-adv-x="642" d="M473 647q54 -54 54 -135v-16v-2q-14 -175 -106 -314q-111 -171 -287 -178h-1q-11 0 -13 12q0 13 13 13q162 7 267 167q50 77 77 170q-39 -53 -96.5 -84t-121.5 -32q-82 0 -139 55q-54 54 -54 135q0 22 4 39q16 94 93 159t172 66q83 0 138 -55zM259 274q84 -1 154.5 59 t85.5 144q3 18 3 35q0 71 -46.5 117.5t-120.5 46.5q-84 1 -155 -59t-85 -144l-13 2l13 -2q-3 -18 -3 -35q0 -71 46.5 -117.5t120.5 -46.5z" />
<glyph unicode=":" horiz-adv-x="240" d="M213 528q-14 0 -22.5 10.5t-6.5 24.5q3 15 15 25.5t27 10.5t23.5 -10.5t5.5 -25.5q-2 -14 -14.5 -24.5t-27.5 -10.5zM133 70q14 0 23 -10.5t6 -24.5q-2 -15 -14.5 -25.5t-27.5 -10.5q-14 0 -23 10.5t-6 25.5q2 14 14.5 24.5t27.5 10.5z" />
<glyph unicode=";" horiz-adv-x="240" d="M213 615q-17 0 -26.5 12t-7.5 30q4 17 18 29t32 12q17 0 26.5 -12t6.5 -29q-2 -17 -16.5 -29.5t-32.5 -12.5zM156 53v-3q0 -2 -1.5 -6.5t-1.5 -8.5q-4 -27 -22.5 -53.5t-57.5 -36.5h-4q-10 0 -10 10q0 13 12 15q33 8 45 36q-6 -3 -11 -3q-16 0 -26 12t-8 29q3 17 17.5 29 t31.5 12q15 0 24.5 -9t9.5 -22z" />
<glyph unicode="&#x3c;" horiz-adv-x="620" d="M457 697q11 10 21 -2t-2 -21l-380 -325l264 -324q9 -12 -2 -21q-4 -4 -10 -4t-11 6l-274 335l-2 4v1q-1 1 -1 4v2v1q0 1 0.5 2t1.5 2q0 1 0.5 1t0.5 1l1 1q0 2 1 2z" />
<glyph unicode="=" horiz-adv-x="620" d="M441 204q14 0 14 -12q0 -6 -4.5 -10t-9.5 -4h-348q-14 0 -14 14q0 12 14 12h348zM477 414q15 0 15 -13q0 -12 -15 -12h-347q-14 0 -14 12q0 13 14 13h347z" />
<glyph unicode="&#x3e;" horiz-adv-x="620" d="M512 354v-3v-2q-1 -1 -1 -3l-1 -1v-1l-3 -3l-391 -335q-6 -4 -10 -4q-8 0 -11 6q-10 10 1 21l381 325l-265 324q-10 12 3 21q10 9 21 -2l273 -335l2 -4l1 -1v-3z" />
<glyph unicode="?" horiz-adv-x="534" d="M127 46q12 -2 10 -13l-4 -23q-2 -10 -12 -10h-2q-12 2 -10 14l4 23q1 5 5.5 7.5t8.5 1.5zM240 700q78 0 129 -51q50 -50 50 -126q0 -17 -3 -37q-15 -84 -83 -144t-153 -64l-22 -124q-2 -10 -12 -10h-2q-12 2 -9 14l22 129q1 1 1 2q0 12 12 12q78 0 143 56t79 134 q3 17 3 32q0 66 -43 109t-112 44q-51 0 -99 -26t-81 -69q-8 -10 -17 -2q-9 7 -2 17q36 48 89 76t110 28z" />
<glyph unicode="@" horiz-adv-x="980" d="M499 700q145 0 229.5 -102.5t58.5 -247.5q-15 -86 -67 -160l-2 -2q-2 -2 -4.5 -5.5t-6.5 -8t-9 -9.5l-11 -10.5t-13.5 -10.5t-15.5 -9.5t-17.5 -8.5t-18.5 -6q-9 -3 -18 -3q-31 0 -43 23q-10 19 -7 41v1l13 74q-30 -40 -73 -63.5t-89 -23.5q-71 0 -111.5 53t-27.5 128 q14 75 73 128t130 53q72 0 112.5 -53t27.5 -128q-2 -6 -2 -10v-2l-28 -154h1q-4 -16 4 -28q8 -13 24 -13q8 0 13 1q39 9 73 51l6 7q49 69 62 148q23 134 -55 229t-212 96q-135 -1 -246.5 -96t-135.5 -229t54.5 -229t212.5 -96q37 0 82 10q12 3 14 -9q0 -12 -12 -15 q-46 -11 -88 -11q-145 0 -230 102.5t-59 247.5q17 95 78 175.5t150 127.5t184 47zM410 194q60 0 111 45.5t62 110.5q12 65 -23 110.5t-95 45.5t-111 -45.5t-63 -110.5q-11 -65 24 -110.5t95 -45.5z" />
<glyph unicode="A" horiz-adv-x="646" d="M63 1q-11 7 -4 17l372 675q5 8 13 6q10 2 13 -10l134 -674q2 -13 -10 -15h-2q-11 0 -13 10l-35 178h-350l-100 -182q-5 -6 -11 -6q-5 0 -7 1zM438 653l-243 -440h331z" />
<glyph unicode="B" horiz-adv-x="594" d="M115 -2q-12 2 -10 14l119 675q2 12 14 10l1 1h158q64 0 103 -41q40 -40 40 -100q0 -9 -2 -29q-9 -47 -39 -85.5t-73 -59.5q47 -10 81 -43q46 -46 46 -116q0 -16 -3 -34q-14 -80 -80 -136t-146 -56h-204h-1h-2h-2zM528 224q-1 60 -39.5 98.5t-100.5 38.5h-196l-60 -338 h192q70 0 129.5 50.5t71.5 120.5q3 15 3 30zM247 672l-50 -284h146q59 -1 109 42t61 102q2 18 2 25q-1 50 -33.5 82.5t-84.5 32.5h-150z" />
<glyph unicode="C" horiz-adv-x="719" d="M378 -2q-132 0 -220 83q-85 83 -85 209q0 34 5 60q25 144 147.5 245.5t271.5 102.5q126 0 211 -77q10 -9 1 -18q-8 -10 -18 -1q-76 70 -194 70q-139 1 -255 -95.5t-139 -231.5q-5 -30 -5 -55q0 -115 78.5 -191t201.5 -76q118 0 221 71q10 7 18 -3q7 -11 -4 -18 q-110 -75 -235 -75z" />
<glyph unicode="D" horiz-adv-x="719" d="M116 -2q-5 1 -8.5 5.5t-1.5 8.5l118 675q3 10 13 10q0 1 1 1h134q127 0 213 -84q83 -83 83 -207q0 -31 -6 -62q-26 -144 -145 -245.5t-264 -101.5h-134h-1h-2zM248 672l-115 -649h120q134 0 247.5 96t136.5 231q5 24 5 57q0 114 -75.5 189.5t-194.5 75.5h-124z" />
<glyph unicode="E" horiz-adv-x="593" d="M115 1q-12 2 -10 14l119 675q2 12 14 10q0 1 1 1h371q13 0 13 -13t-13 -13h-363l-55 -312h315q13 0 13 -12q0 -13 -13 -13h-319l-55 -312h358q13 0 13 -13q0 -12 -13 -12h-371h-1h-1h-3z" />
<glyph unicode="F" horiz-adv-x="600" d="M116 -1q-13 2 -11 14l119 675q3 12 14 10l1 1h371q13 0 13 -13t-13 -13h-362l-55 -312h315q12 0 12 -12q0 -13 -12 -13h-320l-58 -327q-2 -10 -12 -10h-2z" />
<glyph unicode="G" horiz-adv-x="800" d="M378 0q-133 0 -219 83q-86 84 -86 209q0 28 6 60q17 95 78.5 175t151.5 126.5t188 46.5q125 0 212 -77q9 -9 1 -18q-10 -9 -18 -1q-78 70 -195 70q-139 1 -254.5 -95.5t-138.5 -231.5q-5 -23 -5 -55q0 -115 78 -191t201 -76q116 0 218 69l40 228h-207q-12 0 -12 12 q0 13 12 13h220h1h3q13 -2 11 -15l-44 -247q0 -1 -2 -5t-4 -5q-110 -75 -236 -75z" />
<glyph unicode="H" horiz-adv-x="760" d="M115 -1q-12 3 -10 15l119 675q2 12 14 10q13 -2 11 -15l-57 -322h395l2 -1l58 328q2 12 15 10q12 -2 10 -15l-119 -674q-2 -11 -13 -11h-2q-12 3 -10 15l57 322h-398l-57 -326q-2 -11 -13 -11h-2z" />
<glyph unicode="I" horiz-adv-x="305" d="M122 -1q-12 3 -10 15l119 675q2 12 14 10q13 -2 11 -15l-119 -674q-2 -11 -13 -11h-2z" />
<glyph unicode="J" horiz-adv-x="594" d="M68 168q9 -63 55.5 -102.5t115.5 -39.5q86 -1 159 61t88 149l80 454q2 12 15 10q12 -2 10 -15l-80 -454q-17 -96 -96 -163t-176 -68h-1q-77 0 -131 46.5t-64 117.5q-2 13 11 15q12 2 14 -11z" />
<glyph unicode="K" horiz-adv-x="715" d="M224 691q3 12 15 10q5 -1 8 -5.5t2 -9.5l-79 -449l542 461q10 9 18 -1q9 -10 -1 -18l-339 -288l240 -370q6 -11 -4 -18q-4 -2 -7 -2q-7 0 -11 6l-238 367l-203 -172l-3 -3l-34 -187q-2 -11 -12 -11h-2q-13 4 -11 15z" />
<glyph unicode="L" horiz-adv-x="619" d="M239 702q12 -2 10 -15l-116 -660h358q13 0 13 -12q0 -13 -13 -13h-371h-1h-1h-2q-13 4 -11 15l119 675q2 12 15 10z" />
<glyph unicode="M" horiz-adv-x="868" d="M801 698q12 -2 10 -15l-119 -674q-2 -11 -12 -11h-3q-12 3 -10 15l112 634l-318 -355q-4 -4 -10 -4h-1h-2q-8 0 -11 6l-193 356l-114 -641q-2 -11 -12 -11h-2q-13 4 -11 15l119 675q3 10 13 10h2q8 0 11 -6l202 -372l335 374q4 4 11 4h3z" />
<glyph unicode="N" horiz-adv-x="790" d="M106 17l118 671q0 1 1 2q0 6 6 11q12 6 17 -5l350 -644l112 636q3 12 15 10q5 -1 8 -5.5t2 -8.5l-118 -671q-2 -11 -12 -11h-3q-5 1 -9 7l-1 1q0 2 -1 2l-348 640l-113 -639q-2 -11 -12 -11h-2q-13 4 -10 15z" />
<glyph unicode="O" horiz-adv-x="850" d="M468 699q122 0 199 -83q77 -80 77 -204q0 -38 -5 -65q-26 -144 -139.5 -245.5t-250.5 -102.5q-121 0 -199 83q-77 80 -77 205q0 31 6 64q26 145 139.5 246.5t249.5 101.5zM714 351q5 35 5 61q0 113 -70.5 187t-180.5 75h-1q-126 0 -233 -96t-130 -231q-6 -32 -6 -60 q1 -114 71 -188t180 -75q126 0 233.5 96t131.5 231z" />
<glyph unicode="P" horiz-adv-x="583" d="M116 2q-5 1 -8 5.5t-2 9.5l119 674q2 12 12 10l1 1h204q70 0 119 -47q46 -46 46 -116q0 -16 -3 -34q-14 -80 -80 -136t-146 -56h-195l-52 -301q-3 -10 -13 -10h-2zM248 676l-60 -338h190q70 0 129.5 50.5t71.5 120.5q3 17 3 30q-1 60 -39.5 98.5t-100.5 38.5h-194z" />
<glyph unicode="Q" horiz-adv-x="844" d="M770 353q-19 -108 -92.5 -196.5t-172.5 -130.5l-158 -67q58 0 99 -27q83 -56 153 -56q73 0 149 56q12 6 19 -3q3 -11 -6 -19q-86 -59 -166 -59q-78 0 -166 58q-37 25 -87 25q-52 0 -99 -22l-10 -3q-8 -5 -13 1q-3 1 -5 6q-2 15 9 18l156 66h-8q-139 0 -218.5 103.5 t-53.5 249.5q26 148 142.5 252.5t255.5 104.5q138 0 217.5 -104.5t54.5 -252.5zM125 353q-23 -136 50.5 -232t201.5 -96q127 0 234.5 96t133.5 232q23 138 -50.5 234t-201.5 96t-235.5 -96t-132.5 -234z" />
<glyph unicode="R" horiz-adv-x="625" d="M590 504q-12 -65 -60 -116.5t-112 -68.5q7 -3 23 -11q77 -48 77 -128q0 -14 -3 -31q-7 -39 -7 -66q0 -29 8 -42q3 -4 7 -4h2q11 4 15 -9t-8 -16h-3q-3 0 -6 -1q-16 0 -27 15q-13 17 -13 57q0 29 7 70q2 10 2 27q0 53 -40 88q-27 24 -70 38q-5 2 -9 3t-7 2t-4 1h-193 l-53 -301q-2 -10 -12 -10h-3q-12 2 -10 15l119 674q2 11 13 11h1h203q72 0 119 -47q47 -45 47 -116q0 -16 -3 -34zM363 337q71 0 130.5 50.5t71.5 120.5q2 11 2 30q0 60 -39 98.5t-101 38.5h-194l-60 -338h190z" />
<glyph unicode="S" horiz-adv-x="667" d="M69 99q-7 7 1 16q8 8 16 2q40 -39 98.5 -67t124.5 -28q97 0 172 49q75 48 87 115q10 63 -45 106q-54 40 -158 59l-2 1q-104 20 -153 58q-61 46 -48 115q13 73 90.5 123.5t173.5 50.5q42 0 82.5 -14t63 -28.5t54.5 -38.5q9 -5 1 -15q-9 -9 -17 -4q-32 24 -53 37.5 t-58.5 27t-76.5 13.5q-87 0 -158 -46q-69 -45 -79 -106q-10 -58 40 -96q47 -36 146 -55l2 -1q110 -21 166 -63q65 -47 51 -124q-15 -79 -98 -133t-187 -54q-129 0 -236 100z" />
<glyph unicode="T" horiz-adv-x="648" d="M185 -3q-5 1 -8 5.5t-2 9.5l116 659h-229q-12 0 -12 13t12 13h488q12 0 12 -13t-12 -13h-233l-117 -664q-3 -10 -13 -10h-2z" />
<glyph unicode="U" horiz-adv-x="814" d="M206 683l-72 -407q-4 -20 -4 -45q1 -90 60 -148.5t152 -59.5q106 0 195 75.5t107 181.5l72 407q2 13 15 11q12 -3 10 -15l-72 -407q-20 -116 -115.5 -197t-211.5 -81q-104 0 -171 67q-66 66 -66 166q0 28 4 49l72 407q2 13 15 11q12 -4 10 -15z" />
<glyph unicode="V" horiz-adv-x="750" d="M645 699q11 -7 4 -17l-403 -675l-3 -3l-1 -1l-4 -2h-3h-4l-1 1q-1 0 -1 1h-1l-3 3q-2 2 -2 4l-166 675q-2 13 10 15q11 3 15 -9l158 -645l387 649q7 11 18 4z" />
<glyph unicode="W" horiz-adv-x="1102" d="M1068 698q11 -7 4 -17l-403 -675l-3 -3v-1q-1 0 -2.5 -1t-2.5 -1h-3h-3q-1 1 -2 1t-1 1h-1q-2 2 -2 3h-1q-2 2 -2 4l-115 468l-281 -471l-3 -3l-1 -1l-2 -1l-2 -1h-3h-1h-3l-1 1q-1 0 -2 1l-3 3h-1q0 2 -2 4l-165 675q-2 13 9 15q12 4 16 -9l158 -645l279 468q5 8 13 6 q10 2 14 -9l113 -465l388 649q6 12 17 4z" />
<glyph unicode="X" horiz-adv-x="722" d="M408 346l183 -329q7 -10 -5 -18q-2 -1 -6 -1q-8 0 -11 6l-179 322l-294 -324q-3 -4 -9 -4q-4 0 -9 3q-9 9 0 18l299 331l-182 329q-7 11 5 17q11 7 17 -5l178 -322l295 325q7 8 18 1q9 -9 0 -18z" />
<glyph unicode="Y" horiz-adv-x="604" d="M196 -2q-12 2 -10 15l58 330l-186 336q-7 11 5 17q12 8 17 -5l180 -324l297 327q9 9 18 1q9 -9 1 -18l-306 -338h-1l-58 -331q-2 -10 -12 -10h-3z" />
<glyph unicode="Z" horiz-adv-x="667" d="M577 25q12 0 12 -13q0 -12 -12 -12h-494q-3 0 -4 1q-1 0 -2 1q-1 0 -1 0.5t-1 0.5l-2 2l-1 2q0 2 -1 2v3v2q0 2 1 3l1 2l1 2l593 653h-465q-12 0 -12 13t12 13h493q2 0 2 -1h3l2 -1q1 -1 2 -1v-1l2 -2v-1l1 -1v-2q1 -1 1 -3v-2q0 -1 -1 -2q0 -1 -1 -3l-1 -1l-593 -654 h465z" />
<glyph unicode="[" horiz-adv-x="430" d="M100 -104l138 778q1 10 10 18t20 8h232q8 0 12.5 -3.5t3.5 -10.5q-2 -10 -20 -10h-233l-138 -782h233q8 0 12.5 -3t3.5 -10q-2 -11 -20 -11h-232q-10 0 -17 7.5t-5 18.5z" />
<glyph unicode="\" horiz-adv-x="500" d="M312 2q-1 -1 -5 -1q-9 0 -11 8l-285 673q-4 12 8 16q4 2 9 0t7 -7l283 -672q5 -12 -6 -17z" />
<glyph unicode="]" horiz-adv-x="430" d="M472 674l-138 -778q-1 -10 -10 -18t-20 -8h-232q-8 0 -12.5 3.5t-3.5 10.5q2 10 20 10h233l138 782h-233q-8 0 -12.5 3t-3.5 10q2 11 20 11h232q10 0 17 -7.5t5 -18.5z" />
<glyph unicode="_" horiz-adv-x="600" d="M-3 -160q-10 0 -15 4t-3 13q3 17 25 17h334q10 0 15 -4t4 -13q-4 -17 -26 -17h-334z" />
<glyph unicode="`" horiz-adv-x="500" d="M271 598q-16 6 -24 15l-71 77q-13 13 -10 18q0 1 1 5.5t4.5 7t12.5 2.5q16 0 28 -18l62 -93q4 -6 4 -11q0 -7 -7 -3z" />
<glyph unicode="a" horiz-adv-x="619" d="M232 2q-85 0 -138 59q-54 56 -54 141q0 25 4 46q18 100 96.5 170t173.5 70q84 2 139 -58q30 -31 43 -76l23 124q2 13 14 10q12 -2 10 -14l-41 -231l-40 -230q-2 -10 -12 -10h-2q-13 2 -10 14l20 116q-39 -59 -99.5 -94.5t-126.5 -36.5zM69 243q-4 -19 -4 -41 q1 -76 47 -125t120 -49q85 -1 157.5 64t88.5 156q3 21 3 41q0 76 -46.5 125t-120.5 49h-1q-84 0 -156 -64.5t-88 -155.5z" />
<glyph unicode="b" horiz-adv-x="660" d="M105 0q-13 2 -10 14l40 232l80 444q3 12 15 10q13 -2 10 -14l-59 -329q41 60 102.5 96t129.5 37q87 0 144 -60q56 -56 56 -143q0 -16 -4 -46l-13 3l13 -3q-18 -100 -98.5 -170.5t-179.5 -71.5q-87 0 -143 59q-31 31 -47 77l-22 -125q-2 -10 -12 -10h-2zM412 463 q-87 0 -161 -65t-90 -157q-4 -17 -4 -39q1 -77 49.5 -127t124.5 -50q87 -1 162 64.5t91 156.5q3 21 3 41q0 76 -48.5 126t-125.5 50h-1z" />
<glyph unicode="c" horiz-adv-x="571" d="M58 204q0 20 3 42q19 101 104 171.5t189 70.5q86 1 148 -54q10 -8 1 -17t-18 -1q-53 47 -131 47q-94 1 -173 -64.5t-95 -157.5q-3 -18 -3 -37q0 -78 53 -129t136 -51q80 0 150 48q10 7 18 -3q7 -11 -4 -18q-77 -53 -164 -53q-93 0 -154 59q-60 58 -60 147z" />
<glyph unicode="d" horiz-adv-x="660" d="M261 -3q-88 0 -145 59q-56 58 -56 145q0 15 4 45q18 101 99.5 172t180.5 72q86 0 143 -60q32 -31 46 -77l62 337q2 12 15 10q12 -2 10 -14l-122 -678q-2 -10 -12 -10h-3q-12 2 -10 14l20 118q-39 -60 -101.5 -96t-130.5 -37zM89 241q-3 -19 -3 -40q0 -77 49 -127.5 t126 -50.5q87 -1 161.5 65t91.5 158q4 17 4 40q-1 77 -49 127t-125 50q-89 1 -164 -64.5t-91 -157.5z" />
<glyph unicode="e" horiz-adv-x="609" d="M58 203q0 25 4 44q18 101 99 171.5t178 70.5q87 1 143 -58q56 -56 56 -144q0 -18 -1 -27l-1 -2v-2q-4 -9 -12 -9h-436q-1 -2 -1 -5q-4 -16 -4 -39q0 -77 49 -127t126 -50q54 0 106 27t89 73q7 9 18 2q9 -9 2 -18q-89 -108 -215 -110q-88 0 -144 59q-56 56 -56 144z M339 464q-80 1 -150 -54.5t-95 -137.5h418q1 5 1 15q0 77 -48.5 127t-125.5 50z" />
<glyph unicode="f" horiz-adv-x="362" d="M320 700q13 0 11 -12q-4 -13 -15 -13q-52 0 -78 -24q-28 -26 -39 -92l-12 -66h84q5 0 8 -4t2 -9q-2 -13 -15 -13h-84l-80 -454q-2 -13 -15 -13q-12 0 -10 13l80 454h-80q-13 0 -11 13t15 13h80l12 66q13 75 49 109q35 32 98 32z" />
<glyph unicode="g" horiz-adv-x="660" d="M487 25q-17 -95 -95.5 -162t-173.5 -67q-54 0 -97 24q-12 6 -5 17q5 11 17 5q40 -21 85 -21q86 0 157.5 61t86.5 147l18 102q-40 -60 -100 -95.5t-126 -35.5q-81 -1 -139 57q-55 59 -54 143q0 25 4 46q18 100 96.5 171t174.5 72q85 0 139 -59q31 -32 45 -76l22 124 q1 5 5.5 8t9.5 2q12 -2 10 -14l-41 -232v-1zM254 25q85 -1 157.5 64t89.5 157q3 21 3 41q0 76 -47 126t-121 50h-1q-85 0 -157 -65t-88 -157q-4 -19 -4 -41q0 -76 47 -125.5t121 -49.5z" />
<glyph unicode="h" d="M94 13l50 281l69 394q2 12 15 10q12 -2 10 -15l-51 -292q34 45 84 72t104 27q74 0 122 -48q47 -45 47 -118q0 -17 -3 -35l-50 -280q-2 -11 -12 -11h-3q-12 2 -10 15l50 281q3 15 3 30q-1 61 -41 100.5t-103 40.5q-72 0 -133 -52t-73 -124l-50 -280v-2l-1 -1q0 -2 -1 -2 q0 -1 -1 -1q0 -2 -2 -2l-1 -1q-1 -1 -3 -1q-1 -1 -2 -1h-1h-3q-12 2 -10 15z" />
<glyph unicode="i" horiz-adv-x="281" d="M105 0q-12 4 -10 15l81 466q4 13 15 9q13 -2 10 -14l-81 -466q-2 -10 -12 -10h-3zM212 592h-3q-12 2 -10 15l5 24q2 12 15 10q12 -2 10 -15l-5 -24q-2 -10 -12 -10z" />
<glyph unicode="j" horiz-adv-x="249" d="M203 628q0 5 5 8.5t10 2.5q11 -2 9 -14l-5 -24q0 -10 -11 -10h-4q-11 2 -9 15zM187 490q13 -2 11 -15l-107 -597q-5 -30 -29.5 -51t-53.5 -21q-13 0 -13 11q0 5 4 9.5t9 4.5q20 -1 38 14.5t22 35.5l105 599q3 12 14 10z" />
<glyph unicode="k" horiz-adv-x="560" d="M542 493q9 -10 -1 -18l-241 -205l160 -247q7 -10 -3 -18q-6 -2 -7 -2q-8 0 -11 6l-159 245l-136 -116q-2 -2 -4 -2l-21 -122q-2 -11 -13 -11h-2q-12 2 -10 15l119 675q2 12 14 10q13 -2 11 -15l-91 -515l377 321q8 8 18 -1z" />
<glyph unicode="l" horiz-adv-x="249" d="M235 699q13 -2 11 -15l-119 -674q-2 -11 -13 -11h-2q-5 1 -8 5.5t-2 9.5l119 675q2 12 14 10z" />
<glyph unicode="m" horiz-adv-x="951" d="M831 15l49 280q3 16 3 30q0 60 -39.5 99t-102.5 40q-71 0 -131 -50t-73 -120q0 -2 -1 -3l-48 -281q-1 -7 -9 -9q-1 -1 -2 -1h-1h-3q-12 2 -10 15l48 280q1 1 1 3q2 9 2 27q0 61 -39 99.5t-102 39.5q-71 0 -131 -50.5t-73 -121.5l-50 -282q0 -2 -2 -4v-1q-2 -2 -3 -2 l-1 -1q-1 -1 -3 -1q0 -1 -2 -1h-1h-2q-13 2 -11 15l50 280v1l32 183q3 12 15 10t10 -15l-15 -82q34 44 84 70.5t103 26.5q72 0 121 -47q32 -35 42 -79q31 56 86.5 91t118.5 35q71 0 120 -47q47 -47 47 -117q0 -16 -3 -34l-49 -281q-2 -10 -13 -10h-2q-12 2 -10 15z" />
<glyph unicode="n" d="M464 13l50 282q3 15 3 29q0 61 -40 100t-102 40q-73 0 -133.5 -51t-73.5 -122l-49 -283q0 -2 -2 -4q0 -1 -1 -1q0 -2 -2 -2l-1 -1q-1 -1 -3 -1q-1 -1 -2 -1h-2h-2q-12 2 -10 15l50 282v1l32 183q2 12 15 10q12 -2 10 -15l-15 -82q34 44 84 70.5t105 26.5q70 0 120 -47 q46 -46 46 -118q0 -15 -3 -33l-48 -283q-2 -10 -14 -10h-2q-12 2 -10 15z" />
<glyph unicode="o" horiz-adv-x="625" d="M540 288q0 -25 -4 -45l-12 2l12 -2q-18 -101 -97 -171.5t-175 -71.5q-85 0 -140 58q-54 59 -54 144q0 25 4 45q18 101 97 172t175 71q85 0 140 -58q54 -57 54 -144zM511 247q4 19 4 41q-1 77 -48 127t-121 50h-1q-85 0 -157.5 -65.5t-88.5 -156.5q-4 -19 -4 -41 q0 -77 47 -126.5t122 -50.5q85 0 158 65.5t89 156.5z" />
<glyph unicode="p" horiz-adv-x="660" d="M228 489q13 -2 11 -15l-21 -115q40 59 101.5 94.5t128.5 35.5q87 0 143 -58q55 -58 55 -142q0 -14 -4 -44q-18 -100 -98.5 -170t-177.5 -71q-85 0 -142 59q-31 31 -45 76l-60 -343q-2 -11 -13 -11q-1 0 -2 1q-12 2 -10 14l79 449v1l40 229q2 12 15 10zM447 463 q-87 0 -160.5 -64t-88.5 -154q-4 -17 -4 -39q1 -76 49 -126t123 -50q87 -1 161 63.5t90 155.5q3 21 3 40q0 76 -48 125t-124 49h-1z" />
<glyph unicode="q" horiz-adv-x="660" d="M438 -215q-12 2 -10 14l58 335q-39 -59 -100 -95t-129 -36q-86 0 -142 59q-55 57 -55 142q0 23 3 44q18 100 98.5 170t177.5 70q87 0 141 -57q31 -30 46 -77l22 124q2 12 15 10q12 -2 10 -14l-40 -230h-1l-79 -449q-2 -11 -13 -11q-1 0 -2 1zM257 29q87 -1 160.5 63.5 t90.5 155.5q3 21 3 40q0 76 -48.5 125.5t-123.5 49.5q-87 1 -161 -64t-90 -155l-12 2l12 -2q-3 -20 -3 -40q0 -75 48.5 -125t123.5 -50z" />
<glyph unicode="r" horiz-adv-x="439" d="M191 489q12 -3 10 -15l-28 -159q19 28 39 53q100 121 215 121q13 0 13 -13q0 -12 -13 -12q-43 0 -84.5 -19.5t-73.5 -52t-53.5 -60.5t-38.5 -58l-17 -34l-41 -231q-2 -10 -12 -10h-3q-12 2 -10 14l82 465q2 13 15 11z" />
<glyph unicode="s" horiz-adv-x="492" d="M56 71q-9 7 1 17q11 11 18 2q66 -64 150 -64q65 0 114 33q49 31 57 76q7 40 -29 67q-34 26 -107 40h-1q-72 15 -106 41q-44 32 -34 83q10 53 64.5 88.5t121.5 35.5q29 0 57.5 -10t43 -19.5l38.5 -26.5q10 -8 1 -17q-9 -11 -18 -4q-22 16 -36.5 25t-39.5 18t-51 9 q-57 0 -104 -30q-46 -30 -52 -69q-7 -35 26 -62q31 -24 97 -37h2q80 -17 116 -44q46 -36 36 -88q-10 -57 -69 -95.5t-131 -38.5q-91 0 -165 70z" />
<glyph unicode="t" horiz-adv-x="400" d="M248 490q13 0 11 -12q-4 -13 -15 -13h-81l-69 -387q-3 -22 9 -36.5t34 -14.5q12 0 10 -13t-15 -13q-32 0 -50 22.5t-13 54.5l69 387h-84q-5 0 -8 4t-2 9q2 12 14 12h84l35 199q2 12 15 12q12 0 10 -12l-34 -199h80z" />
<glyph unicode="u" d="M518 489q13 -4 11 -15l-50 -279q-14 -81 -80.5 -138t-147.5 -57q-75 0 -120 47q-48 48 -48 117q0 19 4 35l49 279q2 13 15 11q12 -4 10 -15l-50 -279q-2 -11 -2 -31q0 -61 39.5 -100t102.5 -39q71 -1 131 50.5t72 123.5l50 279q2 13 14 11z" />
<glyph unicode="v" horiz-adv-x="582" d="M463 487q11 -7 4 -17l-276 -463l-1 -1q-1 -2 -2 -2v-1q-4 -2 -5 -2h-3h-3q-1 0 -1 0.5t-1 0.5t-1 1t-1 1t-2 1l-1 1l-1 2l-1 2l-114 463q-2 13 10 15q11 4 15 -9l106 -433l260 437q7 10 18 4z" />
<glyph unicode="w" horiz-adv-x="861" d="M759 486q11 -7 4 -17l-278 -465q0 -2 -3 -3v-1l-4 -2h-3h-1h-3l-1 1q-1 0 -2 1l-1 1q-1 1 -2 1q0 1 -1 1q0 1 -1 2t-1 2l-76 314l-190 -317l-3 -3v-1l-4 -2h-1h-3h-3q-1 1 -2 1t-1 1l-3 3h-1q-1 1 -1 2t-1 2l-114 465q-2 13 10 15q11 4 15 -9l106 -435l188 314q5 8 13 6 q11 0 12 -9l77 -311l262 439q6 12 17 4z" />
<glyph unicode="x" horiz-adv-x="570" d="M430 18q5 -10 -5 -17q-2 -1 -6 -1q-8 0 -11 6l-119 217l-199 -219q-3 -4 -9 -4q-4 0 -9 3q-9 9 -1 18l205 224l-123 224q-7 11 5 17q9 6 17 -5l119 -217l197 220q9 9 18 1q9 -9 1 -18l-203 -224z" />
<glyph unicode="y" horiz-adv-x="588" d="M496 489q5 -1 8.5 -5t1.5 -9l-49 -280l-30 -169q-17 -96 -95 -162.5t-174 -67.5q-52 0 -98 24q-10 7 -5 18t17 5q38 -21 86 -21q86 -1 158 60.5t86 147.5l13 69q-33 -45 -82.5 -71.5t-104.5 -27.5q-71 0 -119 48q-48 46 -48 117q0 18 4 34l49 280q3 12 15 10t10 -14 l-49 -280q-3 -16 -3 -30q0 -61 39.5 -100t101.5 -39q71 -1 131.5 50.5t72.5 122.5l27 149l23 131q3 12 14 10z" />
<glyph unicode="z" horiz-adv-x="554" d="M509 475q0 -1 -1 -2v-1l-1 -2l-1 -1l-404 -445h313q12 0 12 -13q0 -12 -12 -12h-341q-3 0 -5 1q-1 0 -1 1q-2 0 -2 1h-1l-1 2l-1 2q-1 1 -1 2v3h-1q0 1 0.5 1t0.5 1v3l2 2q0 1 1 2l403 445h-312q-13 0 -13 12q0 13 13 13h341q1 0 2 -1h2q1 0 3 -2h1v-1q2 0 2 -2l1 -1v-1 q1 0 1 -2v-2v-1v-2z" />
<glyph unicode="{" horiz-adv-x="480" d="M333 -154q-115 24 -148 70.5t-18 130.5l14 79q11 64 -9.5 95.5t-93.5 31.5q-24 0 -21 19t27 19q73 0 105.5 31.5t43.5 95.5l14 79q10 56 30.5 91.5t70.5 64.5t135 45q7 1 11 1t7 -2t2 -8q-2 -9 -15 -13q-110 -28 -155 -68.5t-58 -116.5l-14 -75q-11 -63 -43 -95.5 t-86 -48.5q51 -18 70.5 -49.5t8.5 -94.5l-14 -75q-13 -77 17.5 -117t131.5 -68q11 -5 9 -14q-2 -12 -22 -8z" />
<glyph unicode="|" horiz-adv-x="286" d="M123 -112l157 890q2 8 3 11.5t4.5 7t9.5 3.5q17 0 12 -22l-157 -890q-4 -22 -19 -22q-14 0 -10 22z" />
<glyph unicode="}" horiz-adv-x="480" d="M225 697q115 -24 148 -70.5t18 -130.5l-14 -79q-11 -64 9.5 -95.5t93.5 -31.5q24 0 21 -19t-27 -19q-73 0 -105.5 -31.5t-43.5 -95.5l-14 -79q-10 -56 -30.5 -91.5t-70.5 -64.5t-135 -45q-7 -1 -11 -1t-7 2t-2 8q2 9 15 13q110 28 155 68.5t58 116.5l14 75q11 63 43 95.5 t86 48.5q-51 18 -70.5 49.5t-8.5 94.5l14 75q13 77 -17.5 117t-131.5 68q-11 5 -9 14q2 12 22 8z" />
<glyph unicode="~" horiz-adv-x="460" d="M117 253q-6 -12 -16 -12q-16 0 -16 13q0 2 4 14q7 23 31 41.5t45 18.5q19 0 65 -19t63 -19q31 0 50 43q0 1 2 6.5t4.5 8t6.5 2.5q18 0 18 -17q0 -6 -2 -12q-22 -68 -79 -68q-18 0 -64 19.5t-64 19.5q-31 0 -48 -39z" />
<glyph unicode="&#xa1;" horiz-adv-x="252" d="M105 3q-5 1 -8 5t-2 9l91 521q2 10 13 10h2q5 -1 8 -5.5t2 -9.5l-91 -520q-3 -12 -15 -10zM220 653q-13 4 -11 15l5 24q2 11 12 11q2 0 2 -1q13 -2 11 -14l-5 -24q-2 -13 -14 -11z" />
<glyph unicode="&#xa2;" horiz-adv-x="581" d="M194 22l15 69q-50 13 -87 50q-60 58 -60 147q0 20 3 42q16 90 87.5 157.5t164.5 81.5l14 63q5 22 17 22q18 0 12 -22l-14 -60h12q86 1 148 -54q10 -8 1 -17t-18 -1q-53 47 -131 47q-12 0 -17 -1l-98 -436q20 -2 33 -2q80 0 150 48q10 7 18 -3q7 -11 -4 -18 q-77 -53 -164 -53q-21 0 -39 3l-14 -63q-4 -22 -19 -22q-14 0 -10 22zM87 288q0 -62 34.5 -108.5t93.5 -63.5l96 427q-82 -16 -145 -77.5t-76 -140.5q-3 -18 -3 -37z" />
<glyph unicode="&#xa3;" horiz-adv-x="644" d="M67 -1q2 9 14 10l79 9l66 293h-66q-20 0 -21 5q-1 2 0 6q3 14 27 14h66l29 128q26 117 106 181q71 58 163 58q120 0 179 -93q5 -8 2 -19q-1 -4 -2 -6.5t-3 -3t-4 -0.5t-5.5 0.5t-5.5 0.5q-4 0 -7.5 4.5t-6.5 11.5t-4 8q-48 74 -149 74q-36 0 -76 -14.5t-66 -35.5 q-31 -25 -58.5 -71.5t-37.5 -93.5l-29 -129h304q12 0 17.5 -2.5t3.5 -11.5q-1 -3 -2 -5t-2.5 -3l-3 -2t-4.5 -1h-4.5h-5.5h-5h-304l-66 -293l380 -1q21 0 22 -7v-5q-3 -12 -27 -12h-481h-2h-6t-3 1.5t-1 4.5z" />
<glyph unicode="&#xa5;" horiz-adv-x="686" d="M191 13l34 164h-158q-15 0 -13 13q4 16 19 16h158l25 124h-158q-14 0 -12 12q4 15 18 15h147l-167 322q-8 10 6 17q11 8 17 -2l170 -327l305 327q11 9 18 2q10 -8 1 -17l-303 -322h148q6 0 9.5 -4.5t2.5 -10.5q-2 -12 -18 -12h-159l-25 -124h159q6 0 9.5 -5t1.5 -11 q-2 -13 -17 -13h-159l-34 -164q-4 -13 -15 -13q-5 0 -8 4t-2 9z" />
<glyph unicode="&#xa8;" horiz-adv-x="500" d="M133 637q2 14 12.5 24t24.5 10t23 -10t7 -24q-2 -15 -12.5 -24.5t-24.5 -9.5t-23 10t-7 24zM315 637q2 14 12.5 24t24.5 10t23 -10t8 -24q-2 -14 -13 -24t-25 -10t-23 10t-7 24z" />
<glyph unicode="&#xa9;" horiz-adv-x="830" d="M414 -12q-151 0 -256 105.5t-105 254.5v2q0 149 106 255.5t257 106.5t256 -105.5t105 -254.5v-2q0 -149 -106 -255.5t-257 -106.5zM414 16q141 0 237 97.5t96 236.5v2q0 138 -95 235t-236 97t-237 -97.5t-96 -236.5v-2q0 -138 95 -235t236 -97zM419 166q-77 0 -129.5 55 t-52.5 133v2q0 77 53 133t130 56q72 0 129 -50q9 -7 9 -18q0 -9 -6.5 -15t-15.5 -6q-7 0 -16 7q-49 42 -101 42q-59 0 -98.5 -43.5t-39.5 -104.5v-2q0 -61 40.5 -105t98.5 -44q57 0 106 44q8 5 14 5q8 0 14 -6t6 -14q0 -10 -7 -15q-62 -54 -134 -54z" />
<glyph unicode="&#xae;" horiz-adv-x="416" d="M208 360q-73 0 -123.5 51t-50.5 123v1q0 72 51 123.5t123 51.5q73 0 123.5 -51t50.5 -123v-1q0 -72 -51 -123.5t-123 -51.5zM208 369q69 0 116.5 48.5t47.5 117.5v1q0 69 -47 117t-117 48q-69 0 -116.5 -48.5t-47.5 -117.5v-1q0 -69 47 -117t117 -48zM267 433q4 -8 12 -8 q2 0 2 1q3 0 3 4q-2 3 -5 3t-6 4q-4 10 -4 34q0 31 -30 48q-5 3 -12 5q20 6 32.5 22.5t12.5 38.5q0 26 -18 44.5t-44 18.5h-66h-1q-4 0 -4 -4v-218q0 -5 4 -5q5 0 5 5v96h61q3 -1 8 -2q18 -5 27 -15q16 -12 16 -34q0 -26 7 -38zM210 531h-62v108h62q23 0 39 -15.5t16 -38.5 q0 -22 -16 -38t-39 -16z" />
<glyph unicode="&#xb4;" horiz-adv-x="500" d="M208 598q-7 -4 -7 3q0 5 4 11l62 93q12 18 28 18q9 0 12.5 -2.5t4.5 -7t1 -5.5q3 -5 -10 -18l-71 -77q-8 -9 -24 -15z" />
<glyph unicode="&#xb8;" horiz-adv-x="500" d="M295 10l-65 -132q-10 -20 -26 -20q-12 0 -23 8t-11 16q0 6 5 15l77 113h43z" />
<glyph unicode="&#xbf;" horiz-adv-x="534" d="M344 654q-12 2 -10 13l4 23q2 10 12 10h2q12 -2 10 -14l-4 -23q-1 -5 -5.5 -7.5t-8.5 -1.5zM231 0q-78 0 -129 51q-50 50 -50 126q0 17 3 37q15 84 83 144t153 64l22 124q2 10 12 10h2q12 -2 9 -14l-22 -129q-1 -1 -1 -2q0 -12 -12 -12q-78 0 -143 -56t-79 -134 q-3 -17 -3 -32q0 -66 43 -109t112 -44q51 0 99 26t81 69q8 10 17 2q9 -7 2 -17q-36 -48 -89 -76t-110 -28z" />
<glyph unicode="&#xc0;" horiz-adv-x="790" d="M64 1q-11 7 -4 17l372 675q5 8 13 6q10 2 13 -10l134 -674q2 -13 -10 -15h-2q-11 0 -13 10l-35 178h-350l-100 -182q-4 -6 -11 -6q-5 0 -7 1zM439 653l-243 -440h331zM491 798q-16 6 -24 15l-71 77q-13 13 -10 18q0 1 1 5.5t4.5 7t12.5 2.5q16 0 28 -18l62 -93 q4 -6 4 -11q0 -7 -7 -3z" />
<glyph unicode="&#xc1;" horiz-adv-x="790" d="M64 1q-11 7 -4 17l372 675q5 8 13 6q10 2 13 -10l134 -674q2 -13 -10 -15h-2q-11 0 -13 10l-35 178h-350l-100 -182q-4 -6 -11 -6q-5 0 -7 1zM439 653l-243 -440h331zM389 798q-7 -4 -7 3q0 5 4 11l62 93q12 18 28 18q9 0 12.5 -2.5t4.5 -7t1 -5.5q3 -5 -10 -18l-71 -77 q-8 -9 -24 -15z" />
<glyph unicode="&#xc2;" horiz-adv-x="790" d="M64 1q-11 7 -4 17l372 675q5 8 13 6q10 2 13 -10l134 -674q2 -13 -10 -15h-2q-11 0 -13 10l-35 178h-350l-100 -182q-4 -6 -11 -6q-5 0 -7 1zM439 653l-243 -440h331zM459 894l-85 -76q-22 -18 -29 -18l-14 2q1 5 8 12l91 88q20 18 32 18h8q14 0 24 -18l53 -88 q4 -6 2 -12q-1 -4 -6 -3q-4 1 -7 1q-4 0 -8 2.5t-6 4.5t-5 6.5t-4 5.5z" />
<glyph unicode="&#xc3;" horiz-adv-x="790" d="M64 1q-11 7 -4 17l372 675q5 8 13 6q10 2 13 -10l134 -674q2 -13 -10 -15h-2q-11 0 -13 10l-35 178h-350l-100 -182q-4 -6 -11 -6q-5 0 -7 1zM439 653l-243 -440h331zM328 802q-6 -12 -16 -12q-16 0 -16 13q0 2 4 14q7 23 31 41.5t45 18.5q20 0 66 -19t62 -19q31 0 50 43 q0 1 2 6.5t4.5 8t6.5 2.5q18 0 18 -17q0 -6 -2 -12q-22 -68 -79 -68q-18 0 -64 19.5t-64 19.5q-31 0 -48 -39z" />
<glyph unicode="&#xc4;" horiz-adv-x="790" d="M64 1q-11 7 -4 17l372 675q5 8 13 6q10 2 13 -10l134 -674q2 -13 -10 -15h-2q-11 0 -13 10l-35 178h-350l-100 -182q-4 -6 -11 -6q-5 0 -7 1zM439 653l-243 -440h331zM332 837q2 14 12.5 24t24.5 10t23 -10t7 -24q-2 -15 -12.5 -24.5t-24.5 -9.5t-23 10t-7 24zM514 837 q2 14 12.5 24t24.5 10t23 -10t8 -24q-2 -14 -13 -24t-25 -10t-23 10t-7 24z" />
<glyph unicode="&#xc5;" horiz-adv-x="755" d="M613 18q3 -11 -10 -17q-1 -1 -3 -1h-1q-7 0 -12 9l-35 179h-350l-99 -179q-2 -9 -12 -9h-2q-2 0 -3 1q-9 6 -3 17l355 644q-25 7 -37.5 28t-8.5 49v1q7 35 34.5 56.5t60.5 21.5t53 -22.5t14 -55.5v-1q-5 -27 -23.5 -48t-45.5 -28zM416 738q-3 -19 6 -35t27 -20 q10 -2 14 -2q9 0 17 3q19 5 33 20.5t17 33.5v1q4 22 -9.5 39.5t-37.5 17.5t-43.5 -17.5t-23.5 -39.5v-1zM217 214h330l-88 438z" />
<glyph unicode="&#xc6;" horiz-adv-x="1143" d="M38 23q7 14 516 665q13 16 29 16h497q12 0 17.5 -2.5t3.5 -11.5q-2 -14 -26 -14h-433l-54 -303h388q11 0 17 -3.5t5 -12.5q-4 -16 -27 -16h-388l-55 -308h438q12 0 17.5 -2.5t4.5 -11.5q-2 -15 -27 -15h-442q-11 0 -17 8t-4 18l32 180h-313l-155 -198q-11 -11 -21 -9 q-9 1 -3 20zM238 237h296l78 440h-32z" />
<glyph unicode="&#xc7;" horiz-adv-x="738" d="M378 -2q-132 0 -220 83q-85 83 -85 209q0 34 5 60q25 144 147.5 245.5t271.5 102.5q126 0 211 -77q10 -9 1 -18q-8 -10 -18 -1q-76 70 -194 70q-139 1 -255 -95.5t-139 -231.5q-5 -30 -5 -55q0 -115 78.5 -191t201.5 -76q118 0 221 71q10 7 18 -3q7 -11 -4 -18 q-110 -75 -235 -75zM517 10l-65 -132q-10 -20 -26 -20q-12 0 -23 8t-11 16q0 6 5 15l77 113h43z" />
<glyph unicode="&#xc8;" horiz-adv-x="670" d="M115 1q-12 2 -10 14l119 675q2 12 14 10q0 1 1 1h371q13 0 13 -13t-13 -13h-363l-55 -312h315q13 0 13 -12q0 -13 -13 -13h-319l-55 -312h358q13 0 13 -13q0 -12 -13 -12h-371h-1h-1h-3zM470 798q-16 6 -24 15l-71 77q-13 13 -10 18q0 1 1 5.5t4.5 7t12.5 2.5 q16 0 28 -18l62 -93q4 -6 4 -11q0 -7 -7 -3z" />
<glyph unicode="&#xc9;" horiz-adv-x="670" d="M115 1q-12 2 -10 14l119 675q2 12 14 10q0 1 1 1h371q13 0 13 -13t-13 -13h-363l-55 -312h315q13 0 13 -12q0 -13 -13 -13h-319l-55 -312h358q13 0 13 -13q0 -12 -13 -12h-371h-1h-1h-3zM452 798q-7 -4 -7 3q0 5 4 11l62 93q12 18 28 18q9 0 12.5 -2.5t4.5 -7t1 -5.5 q3 -5 -10 -18l-71 -77q-8 -9 -24 -15z" />
<glyph unicode="&#xca;" horiz-adv-x="670" d="M115 1q-12 2 -10 14l119 675q2 12 14 10q0 1 1 1h371q13 0 13 -13t-13 -13h-363l-55 -312h315q13 0 13 -12q0 -13 -13 -13h-319l-55 -312h358q13 0 13 -13q0 -12 -13 -12h-371h-1h-1h-3zM458 894l-85 -76q-22 -18 -29 -18l-14 2q1 5 8 12l91 88q20 18 32 18h8 q14 0 24 -18l53 -88q4 -6 2 -12q-1 -4 -6 -3q-4 1 -7 1q-4 0 -8 2.5t-6 4.5t-5 6.5t-4 5.5z" />
<glyph unicode="&#xcb;" horiz-adv-x="670" d="M115 1q-12 2 -10 14l119 675q2 12 14 10q0 1 1 1h371q13 0 13 -13t-13 -13h-363l-55 -312h315q13 0 13 -12q0 -13 -13 -13h-319l-55 -312h358q13 0 13 -13q0 -12 -13 -12h-371h-1h-1h-3zM324 837q2 14 12.5 24t24.5 10t23 -10t7 -24q-2 -15 -12.5 -24.5t-24.5 -9.5 t-23 10t-7 24zM506 837q2 14 12.5 24t24.5 10t23 -10t8 -24q-2 -14 -13 -24t-25 -10t-23 10t-7 24z" />
<glyph unicode="&#xcc;" horiz-adv-x="274" d="M26 -1q-12 3 -10 15l119 675q2 12 14 10q13 -2 11 -15l-119 -674q-2 -11 -13 -11h-2zM198 798q-16 6 -24 15l-71 77q-13 13 -10 18q0 1 1 5.5t4.5 7t12.5 2.5q16 0 28 -18l62 -93q4 -6 4 -11q0 -7 -7 -3z" />
<glyph unicode="&#xcd;" horiz-adv-x="274" d="M122 -1q-12 3 -10 15l119 675q2 12 14 10q13 -2 11 -15l-119 -674q-2 -11 -13 -11h-2zM196 798q-7 -4 -7 3q0 5 4 11l62 93q12 18 28 18q9 0 12.5 -2.5t4.5 -7t1 -5.5q3 -5 -10 -18l-71 -77q-8 -9 -24 -15z" />
<glyph unicode="&#xce;" horiz-adv-x="274" d="M89 -1q-12 3 -10 15l119 675q2 12 14 10q13 -2 11 -15l-119 -674q-2 -11 -13 -11h-2zM230 894l-85 -76q-22 -18 -29 -18l-14 2q1 5 8 12l91 88q20 18 32 18h8q14 0 24 -18l53 -88q4 -6 2 -12q-1 -4 -6 -3q-4 1 -7 1q-4 0 -8 2.5t-6 4.5t-5 6.5t-4 5.5z" />
<glyph unicode="&#xcf;" horiz-adv-x="274" d="M31 -1q-12 3 -10 15l119 675q2 12 14 10q13 -2 11 -15l-119 -674q-2 -11 -13 -11h-2zM25 837q2 14 12.5 24t24.5 10t23 -10t7 -24q-2 -15 -12.5 -24.5t-24.5 -9.5t-23 10t-7 24zM207 837q2 14 12.5 24t24.5 10t23 -10t8 -24q-2 -14 -13 -24t-25 -10t-23 10t-7 24z" />
<glyph unicode="&#xd0;" horiz-adv-x="719" d="M116 -2q-5 1 -8.5 5.5t-1.5 8.5l118 675q3 10 13 10q0 1 1 1h134q127 0 213 -84q83 -83 83 -207q0 -31 -6 -62q-26 -144 -145 -245.5t-264 -101.5h-134h-1h-2zM248 672l-115 -649h120q134 0 247.5 96t136.5 231q5 24 5 57q0 114 -75.5 189.5t-194.5 75.5h-124zM63 370 h228q9 0 9 9q0 11 -9 11h-228q-10 0 -10 -11q0 -9 10 -9z" />
<glyph unicode="&#xd1;" horiz-adv-x="790" d="M106 17l118 671q0 1 1 2q0 6 6 11q12 6 17 -5l350 -644l112 636q3 12 15 10q5 -1 8 -5.5t2 -8.5l-118 -671q-2 -11 -12 -11h-3q-5 1 -9 7l-1 1q0 2 -1 2l-348 640l-113 -639q-2 -11 -12 -11h-2q-13 4 -10 15zM402 802q-6 -12 -16 -12q-16 0 -16 13q0 2 4 14q7 23 31 41.5 t45 18.5q20 0 66 -19t62 -19q31 0 50 43q0 1 2 6.5t4.5 8t6.5 2.5q18 0 18 -17q0 -6 -2 -12q-22 -68 -79 -68q-18 0 -64 19.5t-64 19.5q-31 0 -48 -39z" />
<glyph unicode="&#xd2;" horiz-adv-x="850" d="M468 699q122 0 199 -83q77 -80 77 -204q0 -38 -5 -65q-26 -144 -139.5 -245.5t-250.5 -102.5q-121 0 -199 83q-77 80 -77 205q0 31 6 64q26 145 139.5 246.5t249.5 101.5zM714 351q5 35 5 61q0 113 -70.5 187t-180.5 75h-1q-126 0 -233 -96t-130 -231q-6 -32 -6 -60 q1 -114 71 -188t180 -75q126 0 233.5 96t131.5 231zM638 798q-16 6 -24 15l-71 77q-13 13 -10 18q0 1 1 5.5t4.5 7t12.5 2.5q16 0 28 -18l62 -93q4 -6 4 -11q0 -7 -7 -3z" />
<glyph unicode="&#xd3;" horiz-adv-x="850" d="M468 699q122 0 199 -83q77 -80 77 -204q0 -38 -5 -65q-26 -144 -139.5 -245.5t-250.5 -102.5q-121 0 -199 83q-77 80 -77 205q0 31 6 64q26 145 139.5 246.5t249.5 101.5zM714 351q5 35 5 61q0 113 -70.5 187t-180.5 75h-1q-126 0 -233 -96t-130 -231q-6 -32 -6 -60 q1 -114 71 -188t180 -75q126 0 233.5 96t131.5 231zM494 798q-7 -4 -7 3q0 5 4 11l62 93q12 18 28 18q9 0 12.5 -2.5t4.5 -7t1 -5.5q3 -5 -10 -18l-71 -77q-8 -9 -24 -15z" />
<glyph unicode="&#xd4;" horiz-adv-x="850" d="M468 699q122 0 199 -83q77 -80 77 -204q0 -38 -5 -65q-26 -144 -139.5 -245.5t-250.5 -102.5q-121 0 -199 83q-77 80 -77 205q0 31 6 64q26 145 139.5 246.5t249.5 101.5zM714 351q5 35 5 61q0 113 -70.5 187t-180.5 75h-1q-126 0 -233 -96t-130 -231q-6 -32 -6 -60 q1 -114 71 -188t180 -75q126 0 233.5 96t131.5 231zM538 894l-85 -76q-22 -18 -29 -18l-14 2q1 5 8 12l91 88q20 18 32 18h8q14 0 24 -18l53 -88q4 -6 2 -12q-1 -4 -6 -3q-4 1 -7 1q-4 0 -8 2.5t-6 4.5t-5 6.5t-4 5.5z" />
<glyph unicode="&#xd5;" horiz-adv-x="850" d="M468 699q122 0 199 -83q77 -80 77 -204q0 -38 -5 -65q-26 -144 -139.5 -245.5t-250.5 -102.5q-121 0 -199 83q-77 80 -77 205q0 31 6 64q26 145 139.5 246.5t249.5 101.5zM714 351q5 35 5 61q0 113 -70.5 187t-180.5 75h-1q-126 0 -233 -96t-130 -231q-6 -32 -6 -60 q1 -114 71 -188t180 -75q126 0 233.5 96t131.5 231zM403 802q-6 -12 -16 -12q-16 0 -16 13q0 2 4 14q7 23 31 41.5t45 18.5q19 0 65 -19t63 -19q31 0 50 43q0 1 2 6.5t4.5 8t6.5 2.5q18 0 18 -17q0 -6 -2 -12q-22 -68 -79 -68q-18 0 -64 19.5t-64 19.5q-31 0 -48 -39z" />
<glyph unicode="&#xd6;" horiz-adv-x="850" d="M468 699q122 0 199 -83q77 -80 77 -204q0 -38 -5 -65q-26 -144 -139.5 -245.5t-250.5 -102.5q-121 0 -199 83q-77 80 -77 205q0 31 6 64q26 145 139.5 246.5t249.5 101.5zM714 351q5 35 5 61q0 113 -70.5 187t-180.5 75h-1q-126 0 -233 -96t-130 -231q-6 -32 -6 -60 q1 -114 71 -188t180 -75q126 0 233.5 96t131.5 231zM391 837q2 14 12.5 24t24.5 10t23 -10t7 -24q-2 -15 -12.5 -24.5t-24.5 -9.5t-23 10t-7 24zM573 837q2 14 12.5 24t24.5 10t23 -10t8 -24q-2 -14 -13 -24t-25 -10t-23 10t-7 24z" />
<glyph unicode="&#xd7;" horiz-adv-x="620" d="M512 520l-169 -167l168 -166q9 -9 9 -20t-7 -18t-18 -7t-20 9l-166 168l-167 -169q-8 -8 -18 -8t-17 7t-7 17t8 18l169 167l-168 166q-9 9 -9 20t7 18t18 7t20 -9l166 -168l167 169q8 8 18 8t17 -7t7 -17t-8 -18z" />
<glyph unicode="&#xd8;" horiz-adv-x="850" d="M101 14q0 -3 4 -3q8 -3 13 3l607 627q8 10 -2 18q-4 4 -9.5 3.5t-8.5 -4.5l-604 -626q-9 -11 0 -18zM468 699q122 0 199 -83q77 -80 77 -204q0 -38 -5 -65q-26 -144 -139.5 -245.5t-250.5 -102.5q-121 0 -199 83q-77 80 -77 205q0 31 6 64q26 145 139.5 246.5 t249.5 101.5zM714 351q5 35 5 61q0 113 -70.5 187t-180.5 75h-1q-126 0 -233 -96t-130 -231q-6 -32 -6 -60q1 -114 71 -188t180 -75q126 0 233.5 96t131.5 231z" />
<glyph unicode="&#xd9;" horiz-adv-x="760" d="M194 683l-72 -407q-4 -20 -4 -45q1 -90 60 -148.5t152 -59.5q106 0 195 75.5t107 181.5l72 407q2 13 15 11q12 -3 10 -15l-72 -407q-20 -116 -115.5 -197t-211.5 -81q-104 0 -171 67q-66 66 -66 166q0 28 4 49l72 407q2 13 15 11q12 -4 10 -15zM523 798q-16 6 -24 15 l-71 77q-13 13 -10 18q0 1 1 5.5t4.5 7t12.5 2.5q16 0 28 -18l62 -93q4 -6 4 -11q0 -7 -7 -3z" />
<glyph unicode="&#xda;" horiz-adv-x="760" d="M194 683l-72 -407q-4 -20 -4 -45q1 -90 60 -148.5t152 -59.5q106 0 195 75.5t107 181.5l72 407q2 13 15 11q12 -3 10 -15l-72 -407q-20 -116 -115.5 -197t-211.5 -81q-104 0 -171 67q-66 66 -66 166q0 28 4 49l72 407q2 13 15 11q12 -4 10 -15zM396 798q-7 -4 -7 3 q0 5 4 11l62 93q12 18 28 18q9 0 12.5 -2.5t4.5 -7t1 -5.5q3 -5 -10 -18l-71 -77q-8 -9 -24 -15z" />
<glyph unicode="&#xdb;" horiz-adv-x="760" d="M194 683l-72 -407q-4 -20 -4 -45q1 -90 60 -148.5t152 -59.5q106 0 195 75.5t107 181.5l72 407q2 13 15 11q12 -3 10 -15l-72 -407q-20 -116 -115.5 -197t-211.5 -81q-104 0 -171 67q-66 66 -66 166q0 28 4 49l72 407q2 13 15 11q12 -4 10 -15zM500 894l-85 -76 q-22 -18 -29 -18l-14 2q1 5 8 12l91 88q20 18 32 18h8q14 0 24 -18l53 -88q4 -6 2 -12q-1 -4 -6 -3q-4 1 -7 1q-4 0 -8 2.5t-6 4.5t-5 6.5t-4 5.5z" />
<glyph unicode="&#xdc;" horiz-adv-x="760" d="M194 683l-72 -407q-4 -20 -4 -45q1 -90 60 -148.5t152 -59.5q106 0 195 75.5t107 181.5l72 407q2 13 15 11q12 -3 10 -15l-72 -407q-20 -116 -115.5 -197t-211.5 -81q-104 0 -171 67q-66 66 -66 166q0 28 4 49l72 407q2 13 15 11q12 -4 10 -15zM353 837q2 14 12.5 24 t24.5 10t23 -10t7 -24q-2 -15 -12.5 -24.5t-24.5 -9.5t-23 10t-7 24zM535 837q2 14 12.5 24t24.5 10t23 -10t8 -24q-2 -14 -13 -24t-25 -10t-23 10t-7 24z" />
<glyph unicode="&#xdd;" horiz-adv-x="716" d="M196 -2q-12 2 -10 15l58 330l-186 336q-7 11 5 17q12 8 17 -5l180 -324l297 327q9 9 18 1q9 -9 1 -18l-306 -338h-1l-58 -331q-2 -10 -12 -10h-3zM326 798q-7 -4 -7 3q0 5 4 11l62 93q12 18 28 18q9 0 12.5 -2.5t4.5 -7t1 -5.5q3 -5 -10 -18l-71 -77q-8 -9 -24 -15z" />
<glyph unicode="&#xdf;" horiz-adv-x="620" d="M288 22q1 9 8.5 15t16.5 7q91 5 151.5 41t71.5 104l1 2q11 64 -36 101.5t-132 48.5q-24 3 -21 24q4 18 25 25q163 54 184 170v2q10 57 -25 94t-101 37q-74 0 -130 -52t-72 -139l-84 -480q-5 -24 -29 -24q-11 0 -16.5 7t-3.5 17l84 480q19 105 90.5 171t171.5 66 q89 0 135.5 -50t32.5 -125v-2q-12 -68 -66 -117t-124 -73q85 -15 134 -59.5t36 -119.5v-2q-16 -89 -93.5 -138t-191.5 -53q-8 0 -13 6.5t-4 15.5z" />
<glyph unicode="&#xe0;" horiz-adv-x="574" d="M255 2q-85 0 -138 59q-54 56 -54 141q0 25 4 46q18 100 96.5 170t173.5 70q84 2 139 -58q30 -31 43 -76l23 124q2 13 14 10q12 -2 10 -14l-41 -231l-40 -230q-2 -10 -12 -10h-2q-13 2 -10 14l20 116q-39 -59 -99.5 -94.5t-126.5 -36.5zM92 243q-4 -19 -4 -41 q1 -76 47 -125t120 -49q85 -1 157.5 64t88.5 156q3 21 3 41q0 76 -46.5 125t-120.5 49h-1q-84 0 -156 -64.5t-88 -155.5zM438 598q-16 6 -24 15l-71 77q-13 13 -10 18q0 1 1 5.5t4.5 7t12.5 2.5q16 0 28 -18l62 -93q4 -6 4 -11q0 -7 -7 -3z" />
<glyph unicode="&#xe1;" horiz-adv-x="574" d="M255 2q-85 0 -138 59q-54 56 -54 141q0 25 4 46q18 100 96.5 170t173.5 70q84 2 139 -58q30 -31 43 -76l23 124q2 13 14 10q12 -2 10 -14l-41 -231l-40 -230q-2 -10 -12 -10h-2q-13 2 -10 14l20 116q-39 -59 -99.5 -94.5t-126.5 -36.5zM92 243q-4 -19 -4 -41 q1 -76 47 -125t120 -49q85 -1 157.5 64t88.5 156q3 21 3 41q0 76 -46.5 125t-120.5 49h-1q-84 0 -156 -64.5t-88 -155.5zM290 598q-7 -4 -7 3q0 5 4 11l62 93q12 18 28 18q9 0 12.5 -2.5t4.5 -7t1 -5.5q3 -5 -10 -18l-71 -77q-8 -9 -24 -15z" />
<glyph unicode="&#xe2;" horiz-adv-x="574" d="M255 2q-85 0 -138 59q-54 56 -54 141q0 25 4 46q18 100 96.5 170t173.5 70q84 2 139 -58q30 -31 43 -76l23 124q2 13 14 10q12 -2 10 -14l-41 -231l-40 -230q-2 -10 -12 -10h-2q-13 2 -10 14l20 116q-39 -59 -99.5 -94.5t-126.5 -36.5zM92 243q-4 -19 -4 -41 q1 -76 47 -125t120 -49q85 -1 157.5 64t88.5 156q3 21 3 41q0 76 -46.5 125t-120.5 49h-1q-84 0 -156 -64.5t-88 -155.5zM410 694l-85 -76q-22 -18 -29 -18l-14 2q1 5 8 12l91 88q20 18 32 18h8q14 0 24 -18l53 -88q4 -6 2 -12q-1 -4 -6 -3q-4 1 -7 1q-4 0 -8 2.5t-6 4.5 t-5 6.5t-4 5.5z" />
<glyph unicode="&#xe3;" horiz-adv-x="574" d="M255 2q-85 0 -138 59q-54 56 -54 141q0 25 4 46q18 100 96.5 170t173.5 70q84 2 139 -58q30 -31 43 -76l23 124q2 13 14 10q12 -2 10 -14l-41 -231l-40 -230q-2 -10 -12 -10h-2q-13 2 -10 14l20 116q-39 -59 -99.5 -94.5t-126.5 -36.5zM92 243q-4 -19 -4 -41 q1 -76 47 -125t120 -49q85 -1 157.5 64t88.5 156q3 21 3 41q0 76 -46.5 125t-120.5 49h-1q-84 0 -156 -64.5t-88 -155.5zM283 602q-6 -12 -16 -12q-16 0 -16 13q0 2 4 14q7 23 31 41.5t45 18.5q19 0 65 -19t63 -19q31 0 50 43q0 1 2 6.5t4.5 8t6.5 2.5q18 0 18 -17 q0 -6 -2 -12q-22 -68 -79 -68q-18 0 -64 19.5t-64 19.5q-31 0 -48 -39z" />
<glyph unicode="&#xe4;" horiz-adv-x="574" d="M255 2q-85 0 -138 59q-54 56 -54 141q0 25 4 46q18 100 96.5 170t173.5 70q84 2 139 -58q30 -31 43 -76l23 124q2 13 14 10q12 -2 10 -14l-41 -231l-40 -230q-2 -10 -12 -10h-2q-13 2 -10 14l20 116q-39 -59 -99.5 -94.5t-126.5 -36.5zM92 243q-4 -19 -4 -41 q1 -76 47 -125t120 -49q85 -1 157.5 64t88.5 156q3 21 3 41q0 76 -46.5 125t-120.5 49h-1q-84 0 -156 -64.5t-88 -155.5zM271 637q2 14 12.5 24t24.5 10t23 -10t7 -24q-2 -15 -12.5 -24.5t-24.5 -9.5t-23 10t-7 24zM453 637q2 14 12.5 24t24.5 10t23 -10t8 -24 q-2 -14 -13 -24t-25 -10t-23 10t-7 24z" />
<glyph unicode="&#xe5;" horiz-adv-x="574" d="M430 711q33 0 53 -22.5t14 -55.5v-1q-5 -33 -32.5 -56.5t-62.5 -23.5q-34 0 -53 23.5t-14 56.5v1q7 35 34.5 56.5t60.5 21.5zM473 632q4 22 -9.5 39.5t-37.5 17.5t-43.5 -17.5t-23.5 -39.5v-1q-4 -22 9.5 -39.5t37.5 -17.5t43.5 17.5t23.5 39.5v1zM243 2q-85 0 -138 59 q-54 56 -54 141q0 25 4 46q18 100 96.5 170t173.5 70q84 2 139 -58q30 -31 43 -76l23 124q2 13 14 10q12 -2 10 -14l-41 -231l-40 -230q-2 -10 -12 -10h-2q-13 2 -10 14l20 116q-39 -59 -99.5 -94.5t-126.5 -36.5zM80 243q-4 -19 -4 -41q1 -76 47 -125t120 -49 q85 -1 157.5 64t88.5 156q3 21 3 41q0 76 -46.5 125t-120.5 49h-1q-84 0 -156 -64.5t-88 -155.5z" />
<glyph unicode="&#xe6;" horiz-adv-x="954" d="M245 2q-86 0 -140 59q-54 57 -54 143q0 25 4 46q18 101 97 171.5t175 70.5q85 1 140 -58q31 -32 44 -77l23 125q2 13 14 10q12 -2 10 -14l-24 -133q39 65 104.5 105t137.5 40q87 1 143 -58q56 -56 56 -144q0 -18 -1 -27q0 -1 -0.5 -2t-0.5 -2q-4 -9 -12 -9h-437 q-1 -2 -1 -5q-4 -17 -4 -40q0 -77 49 -127t126 -50q55 0 107 27t89 73q7 9 18 2q9 -9 2 -18q-89 -108 -216 -110q-88 0 -144 59q-38 38 -50 90l-24 -136q-2 -10 -12 -10h-2q-13 2 -10 14l20 117q-39 -59 -99.5 -95t-127.5 -37zM80 245q-4 -19 -4 -41q1 -77 48 -126.5 t121 -49.5q86 -1 159 64.5t89 157.5q3 21 3 41q0 77 -47 126.5t-122 49.5h-1q-85 0 -157.5 -65.5t-88.5 -156.5zM776 465q-80 1 -150.5 -54.5t-95.5 -137.5h419q1 5 1 15q0 77 -48.5 127t-125.5 50z" />
<glyph unicode="&#xe7;" horiz-adv-x="571" d="M58 204q0 20 3 42q19 101 104 171.5t189 70.5q86 1 148 -54q10 -8 1 -17t-18 -1q-53 47 -131 47q-94 1 -173 -64.5t-95 -157.5q-3 -18 -3 -37q0 -78 53 -129t136 -51q80 0 150 48q10 7 18 -3q7 -11 -4 -18q-77 -53 -164 -53q-93 0 -154 59q-60 58 -60 147zM424 10 l-65 -132q-10 -20 -26 -20q-12 0 -23 8t-11 16q0 6 5 15l77 113h43z" />
<glyph unicode="&#xe8;" horiz-adv-x="584" d="M61 203q0 25 4 44q18 101 99 171.5t178 70.5q87 1 143 -58q56 -56 56 -144q0 -18 -1 -27v-2l-1 -2q-4 -9 -12 -9h-436q-1 -2 -1 -5q-4 -16 -4 -39q0 -77 49 -127t126 -50q54 0 106 27t89 73q7 9 18 2q9 -9 2 -18q-89 -108 -215 -110q-88 0 -144 59q-56 56 -56 144z M342 464q-80 1 -150 -54.5t-95 -137.5h418q1 5 1 15q0 77 -48.5 127t-125.5 50zM433 598q-16 6 -24 15l-71 77q-13 13 -10 18q0 1 1 5.5t4.5 7t12.5 2.5q16 0 28 -18l62 -93q4 -6 4 -11q0 -7 -7 -3z" />
<glyph unicode="&#xe9;" horiz-adv-x="584" d="M61 203q0 25 4 44q18 101 99 171.5t178 70.5q87 1 143 -58q56 -56 56 -144q0 -18 -1 -27v-2l-1 -2q-4 -9 -12 -9h-436q-1 -2 -1 -5q-4 -16 -4 -39q0 -77 49 -127t126 -50q54 0 106 27t89 73q7 9 18 2q9 -9 2 -18q-89 -108 -215 -110q-88 0 -144 59q-56 56 -56 144z M342 464q-80 1 -150 -54.5t-95 -137.5h418q1 5 1 15q0 77 -48.5 127t-125.5 50zM287 598q-7 -4 -7 3q0 5 4 11l62 93q12 18 28 18q9 0 12.5 -2.5t4.5 -7t1 -5.5q3 -5 -10 -18l-71 -77q-8 -9 -24 -15z" />
<glyph unicode="&#xea;" horiz-adv-x="584" d="M61 203q0 25 4 44q18 101 99 171.5t178 70.5q87 1 143 -58q56 -56 56 -144q0 -18 -1 -27v-2l-1 -2q-4 -9 -12 -9h-436q-1 -2 -1 -5q-4 -16 -4 -39q0 -77 49 -127t126 -50q54 0 106 27t89 73q7 9 18 2q9 -9 2 -18q-89 -108 -215 -110q-88 0 -144 59q-56 56 -56 144z M342 464q-80 1 -150 -54.5t-95 -137.5h418q1 5 1 15q0 77 -48.5 127t-125.5 50zM387 694l-85 -76q-22 -18 -29 -18l-14 2q1 5 8 12l91 88q20 18 32 18h8q14 0 24 -18l53 -88q4 -6 2 -12q-1 -4 -6 -3q-4 1 -7 1q-4 0 -8 2.5t-6 4.5t-5 6.5t-4 5.5z" />
<glyph unicode="&#xeb;" horiz-adv-x="584" d="M61 203q0 25 4 44q18 101 99 171.5t178 70.5q87 1 143 -58q56 -56 56 -144q0 -18 -1 -27v-2l-1 -2q-4 -9 -12 -9h-436q-1 -2 -1 -5q-4 -16 -4 -39q0 -77 49 -127t126 -50q54 0 106 27t89 73q7 9 18 2q9 -9 2 -18q-89 -108 -215 -110q-88 0 -144 59q-56 56 -56 144z M342 464q-80 1 -150 -54.5t-95 -137.5h418q1 5 1 15q0 77 -48.5 127t-125.5 50zM254 637q2 14 12.5 24t24.5 10t23 -10t7 -24q-2 -15 -12.5 -24.5t-24.5 -9.5t-23 10t-7 24zM436 637q2 14 12.5 24t24.5 10t23 -10t8 -24q-2 -14 -13 -24t-25 -10t-23 10t-7 24z" />
<glyph unicode="&#xec;" horiz-adv-x="249" d="M13 0q-12 4 -10 15l81 464q4 13 15 9q13 -2 10 -14l-81 -464q-2 -10 -12 -10h-3zM141 598q-16 6 -24 15l-71 77q-13 13 -10 18q0 1 1 5.5t4.5 7t12.5 2.5q16 0 28 -18l62 -93q4 -6 4 -11q0 -7 -7 -3z" />
<glyph unicode="&#xed;" horiz-adv-x="249" d="M111 0q-12 4 -10 15l81 464q4 13 15 9q13 -2 10 -14l-81 -464q-2 -10 -12 -10h-3zM149 598q-7 -4 -7 3q0 5 4 11l62 93q12 18 28 18q9 0 12.5 -2.5t4.5 -7t1 -5.5q3 -5 -10 -18l-71 -77q-8 -9 -24 -15z" />
<glyph unicode="&#xee;" horiz-adv-x="249" d="M26 0q-12 4 -10 15l81 464q4 13 15 9q13 -2 10 -14l-81 -464q-2 -10 -12 -10h-3zM132 694l-85 -76q-22 -18 -29 -18l-14 2q1 5 8 12l91 88q20 18 32 18h8q14 0 24 -18l53 -88q4 -6 2 -12q-1 -4 -6 -3q-4 1 -7 1q-4 0 -8 2.5t-6 4.5t-5 6.5t-4 5.5z" />
<glyph unicode="&#xef;" horiz-adv-x="249" d="M18 0q-12 4 -10 15l81 464q4 13 15 9q13 -2 10 -14l-81 -464q-2 -10 -12 -10h-3zM-18 637q2 14 12.5 24t24.5 10t23 -10t7 -24q-2 -15 -12.5 -24.5t-24.5 -9.5t-23 10t-7 24zM164 637q2 14 12.5 24t24.5 10t23 -10t8 -24q-2 -14 -13 -24t-25 -10t-23 10t-7 24z" />
<glyph unicode="&#xf1;" d="M464 13l50 282q3 15 3 29q0 61 -40 100t-102 40q-73 0 -133.5 -51t-73.5 -122l-49 -283q0 -2 -2 -4q0 -1 -1 -1q0 -2 -2 -2l-1 -1q-1 -1 -3 -1q-1 -1 -2 -1h-2h-2q-12 2 -10 15l50 282v1l32 183q2 12 15 10q12 -2 10 -15l-15 -82q34 44 84 70.5t105 26.5q70 0 120 -47 q46 -46 46 -118q0 -15 -3 -33l-48 -283q-2 -10 -14 -10h-2q-12 2 -10 15zM318 602q-6 -12 -16 -12q-16 0 -16 13q0 2 4 14q7 23 31 41.5t45 18.5q20 0 66 -19t62 -19q31 0 50 43q0 1 2 6.5t4.5 8t6.5 2.5q18 0 18 -17q0 -6 -2 -12q-22 -68 -79 -68q-18 0 -64 19.5t-64 19.5 q-31 0 -48 -39z" />
<glyph unicode="&#xf2;" horiz-adv-x="640" d="M528 288q0 -25 -4 -45l-12 2l12 -2q-18 -101 -97 -171.5t-175 -71.5q-85 0 -140 58q-54 59 -54 144q0 25 4 45q18 101 97 172t175 71q85 0 140 -58q54 -57 54 -144zM499 247q4 19 4 41q-1 77 -48 127t-121 50h-1q-85 0 -157.5 -65.5t-88.5 -156.5q-4 -19 -4 -41 q0 -77 47 -126.5t122 -50.5q85 0 158 65.5t89 156.5zM454 598q-16 6 -24 15l-71 77q-13 13 -10 18q0 1 1 5.5t4.5 7t12.5 2.5q16 0 28 -18l62 -93q4 -6 4 -11q0 -7 -7 -3z" />
<glyph unicode="&#xf3;" horiz-adv-x="640" d="M528 288q0 -25 -4 -45l-12 2l12 -2q-18 -101 -97 -171.5t-175 -71.5q-85 0 -140 58q-54 59 -54 144q0 25 4 45q18 101 97 172t175 71q85 0 140 -58q54 -57 54 -144zM499 247q4 19 4 41q-1 77 -48 127t-121 50h-1q-85 0 -157.5 -65.5t-88.5 -156.5q-4 -19 -4 -41 q0 -77 47 -126.5t122 -50.5q85 0 158 65.5t89 156.5zM354 598q-7 -4 -7 3q0 5 4 11l62 93q12 18 28 18q9 0 12.5 -2.5t4.5 -7t1 -5.5q3 -5 -10 -18l-71 -77q-8 -9 -24 -15z" />
<glyph unicode="&#xf4;" horiz-adv-x="640" d="M528 288q0 -25 -4 -45l-12 2l12 -2q-18 -101 -97 -171.5t-175 -71.5q-85 0 -140 58q-54 59 -54 144q0 25 4 45q18 101 97 172t175 71q85 0 140 -58q54 -57 54 -144zM499 247q4 19 4 41q-1 77 -48 127t-121 50h-1q-85 0 -157.5 -65.5t-88.5 -156.5q-4 -19 -4 -41 q0 -77 47 -126.5t122 -50.5q85 0 158 65.5t89 156.5zM440 694l-85 -76q-22 -18 -29 -18l-14 2q1 5 8 12l91 88q20 18 32 18h8q14 0 24 -18l53 -88q4 -6 2 -12q-1 -4 -6 -3q-4 1 -7 1q-4 0 -8 2.5t-6 4.5t-5 6.5t-4 5.5z" />
<glyph unicode="&#xf5;" horiz-adv-x="640" d="M528 288q0 -25 -4 -45l-12 2l12 -2q-18 -101 -97 -171.5t-175 -71.5q-85 0 -140 58q-54 59 -54 144q0 25 4 45q18 101 97 172t175 71q85 0 140 -58q54 -57 54 -144zM499 247q4 19 4 41q-1 77 -48 127t-121 50h-1q-85 0 -157.5 -65.5t-88.5 -156.5q-4 -19 -4 -41 q0 -77 47 -126.5t122 -50.5q85 0 158 65.5t89 156.5zM296 602q-6 -12 -16 -12q-16 0 -16 13q0 2 4 14q7 23 31 41.5t45 18.5q20 0 66 -19t62 -19q31 0 50 43q0 1 2 6.5t4.5 8t6.5 2.5q18 0 18 -17q0 -6 -2 -12q-22 -68 -79 -68q-18 0 -64 19.5t-64 19.5q-31 0 -48 -39z" />
<glyph unicode="&#xf6;" horiz-adv-x="640" d="M528 288q0 -25 -4 -45l-12 2l12 -2q-18 -101 -97 -171.5t-175 -71.5q-85 0 -140 58q-54 59 -54 144q0 25 4 45q18 101 97 172t175 71q85 0 140 -58q54 -57 54 -144zM499 247q4 19 4 41q-1 77 -48 127t-121 50h-1q-85 0 -157.5 -65.5t-88.5 -156.5q-4 -19 -4 -41 q0 -77 47 -126.5t122 -50.5q85 0 158 65.5t89 156.5zM264 637q2 14 12.5 24t24.5 10t23 -10t7 -24q-2 -15 -12.5 -24.5t-24.5 -9.5t-23 10t-7 24zM446 637q2 14 12.5 24t24.5 10t23 -10t8 -24q-2 -14 -13 -24t-25 -10t-23 10t-7 24z" />
<glyph unicode="&#xf7;" horiz-adv-x="620" d="M84 328h444q10 0 19.5 7t12.5 17q4 10 -1 17t-15 7h-444q-10 0 -19 -7t-13 -17q-3 -10 1.5 -17t14.5 -7zM395 593q16 0 24 -11.5t3 -28.5l-6 -17q-5 -16 -20.5 -28t-32.5 -12q-16 0 -24 11.5t-3 28.5l6 17q5 16 20.5 28t32.5 12zM266 208q16 0 24 -11.5t3 -28.5l-6 -17 q-6 -17 -22 -28.5t-32 -11.5q-17 0 -24.5 12t-1.5 28l6 17q5 16 20.5 28t32.5 12z" />
<glyph unicode="&#xf8;" horiz-adv-x="625" d="M83 4q-9 9 1 19l419 461q3 3 8 3.5t9 -3.5q10 -8 2 -17l-422 -462q-3 -7 -13 -3q-1 0 -2 1t-2 1zM540 288q0 -25 -4 -45l-12 2l12 -2q-18 -101 -97 -171.5t-175 -71.5q-85 0 -140 58q-54 59 -54 144q0 25 4 45q18 101 97 172t175 71q85 0 140 -58q54 -57 54 -144z M511 247q4 19 4 41q-1 77 -48 127t-121 50h-1q-85 0 -157.5 -65.5t-88.5 -156.5q-4 -19 -4 -41q0 -77 47 -126.5t122 -50.5q85 0 158 65.5t89 156.5z" />
<glyph unicode="&#xf9;" d="M518 489q13 -4 11 -15l-50 -279q-14 -81 -80.5 -138t-147.5 -57q-75 0 -120 47q-48 48 -48 117q0 19 4 35l49 279q2 13 15 11q12 -4 10 -15l-50 -279q-2 -11 -2 -31q0 -61 39.5 -100t102.5 -39q71 -1 131 50.5t72 123.5l50 279q2 13 14 11zM398 598q-16 6 -24 15l-71 77 q-13 13 -10 18q0 1 1 5.5t4.5 7t12.5 2.5q16 0 28 -18l62 -93q4 -6 4 -11q0 -7 -7 -3z" />
<glyph unicode="&#xfa;" d="M518 489q13 -4 11 -15l-50 -279q-14 -81 -80.5 -138t-147.5 -57q-75 0 -120 47q-48 48 -48 117q0 19 4 35l49 279q2 13 15 11q12 -4 10 -15l-50 -279q-2 -11 -2 -31q0 -61 39.5 -100t102.5 -39q71 -1 131 50.5t72 123.5l50 279q2 13 14 11zM335 598q-7 -4 -7 3q0 5 4 11 l62 93q12 18 28 18q9 0 12.5 -2.5t4.5 -7t1 -5.5q3 -5 -10 -18l-71 -77q-8 -9 -24 -15z" />
<glyph unicode="&#xfb;" d="M518 489q13 -4 11 -15l-50 -279q-14 -81 -80.5 -138t-147.5 -57q-75 0 -120 47q-48 48 -48 117q0 19 4 35l49 279q2 13 15 11q12 -4 10 -15l-50 -279q-2 -11 -2 -31q0 -61 39.5 -100t102.5 -39q71 -1 131 50.5t72 123.5l50 279q2 13 14 11zM385 694l-85 -76 q-22 -18 -29 -18l-14 2q1 5 8 12l91 88q20 18 32 18h8q14 0 24 -18l53 -88q4 -6 2 -12q-1 -4 -6 -3q-4 1 -7 1q-4 0 -8 2.5t-6 4.5t-5 6.5t-4 5.5z" />
<glyph unicode="&#xfc;" d="M518 489q13 -4 11 -15l-50 -279q-14 -81 -80.5 -138t-147.5 -57q-75 0 -120 47q-48 48 -48 117q0 19 4 35l49 279q2 13 15 11q12 -4 10 -15l-50 -279q-2 -11 -2 -31q0 -61 39.5 -100t102.5 -39q71 -1 131 50.5t72 123.5l50 279q2 13 14 11zM256 637q2 14 12.5 24t24.5 10 t23 -10t7 -24q-2 -15 -12.5 -24.5t-24.5 -9.5t-23 10t-7 24zM438 637q2 14 12.5 24t24.5 10t23 -10t8 -24q-2 -14 -13 -24t-25 -10t-23 10t-7 24z" />
<glyph unicode="&#xfd;" horiz-adv-x="588" d="M496 489q5 -1 8.5 -5t1.5 -9l-49 -280l-30 -169q-17 -96 -95 -162.5t-174 -67.5q-52 0 -98 24q-10 7 -5 18t17 5q38 -21 86 -21q86 -1 158 60.5t86 147.5l13 69q-33 -45 -82.5 -71.5t-104.5 -27.5q-71 0 -119 48q-48 46 -48 117q0 18 4 34l49 280q3 12 15 10t10 -14 l-49 -280q-3 -16 -3 -30q0 -61 39.5 -100t101.5 -39q71 -1 131.5 50.5t72.5 122.5l27 149l23 131q3 12 14 10zM294 598q-7 -4 -7 3q0 5 4 11l62 93q12 18 28 18q9 0 12.5 -2.5t4.5 -7t1 -5.5q3 -5 -10 -18l-71 -77q-8 -9 -24 -15z" />
<glyph unicode="&#xff;" horiz-adv-x="588" d="M496 489q5 -1 8.5 -5t1.5 -9l-49 -280l-30 -169q-17 -96 -95 -162.5t-174 -67.5q-52 0 -98 24q-10 7 -5 18t17 5q38 -21 86 -21q86 -1 158 60.5t86 147.5l13 69q-33 -45 -82.5 -71.5t-104.5 -27.5q-71 0 -119 48q-48 46 -48 117q0 18 4 34l49 280q3 12 15 10t10 -14 l-49 -280q-3 -16 -3 -30q0 -61 39.5 -100t101.5 -39q71 -1 131.5 50.5t72.5 122.5l27 149l23 131q3 12 14 10zM220 637q2 14 12.5 24t24.5 10t23 -10t7 -24q-2 -15 -12.5 -24.5t-24.5 -9.5t-23 10t-7 24zM402 637q2 14 12.5 24t24.5 10t23 -10t8 -24q-2 -14 -13 -24t-25 -10 t-23 10t-7 24z" />
<glyph unicode="&#x152;" horiz-adv-x="1239" d="M1051 14h-373q-11 0 -9 13l38 215q-56 -107 -155.5 -174t-209.5 -67q-142 0 -222.5 105.5t-54.5 256.5q27 150 145 255.5t260 105.5q110 0 185.5 -67t93.5 -174l39 218q2 11 14 13h373q12 0 10 -13q-3 -12 -14 -12h-360l-55 -312h317q11 0 9 -12q-2 -13 -14 -13h-317 l-55 -313h360q12 0 10 -12q-2 -13 -15 -13zM92 363q-25 -138 50 -235.5t205 -99.5q129 2 238.5 99.5t134.5 235.5q24 139 -51 237t-204 98t-238.5 -98t-134.5 -237z" />
<glyph unicode="&#x153;" horiz-adv-x="1055" d="M474 432q43 -46 52 -115q35 76 105.5 124.5t150.5 48.5q87 1 143 -58q56 -56 56 -144q0 -18 -1 -27q0 -1 -0.5 -2t-0.5 -2q-4 -9 -12 -9h-437q-1 -2 -1 -5q-4 -17 -4 -40q0 -77 49 -127t126 -50q55 0 107 27t89 73q7 9 18 2q9 -9 2 -18q-89 -108 -216 -110q-88 0 -144 59 q-46 45 -54 114q-35 -76 -103.5 -124t-146.5 -49q-85 0 -140 58q-54 59 -54 144q0 25 4 45q18 101 97 172t175 71q85 0 140 -58zM499 247q4 19 4 41q-1 77 -48 127t-121 50h-1q-85 0 -157.5 -65.5t-88.5 -156.5q-4 -19 -4 -41q0 -77 47 -126.5t122 -50.5q85 0 158 65.5 t89 156.5zM782 465q-80 1 -150.5 -54.5t-95.5 -137.5h419q1 5 1 15q0 77 -48.5 127t-125.5 50z" />
<glyph unicode="&#x178;" horiz-adv-x="716" d="M196 -2q-12 2 -10 15l58 330l-186 336q-7 11 5 17q12 8 17 -5l180 -324l297 327q9 9 18 1q9 -9 1 -18l-306 -338h-1l-58 -331q-2 -10 -12 -10h-3zM240 837q2 14 12.5 24t24.5 10t23 -10t7 -24q-2 -15 -12.5 -24.5t-24.5 -9.5t-23 10t-7 24zM422 837q2 14 12.5 24t24.5 10 t23 -10t8 -24q-2 -14 -13 -24t-25 -10t-23 10t-7 24z" />
<glyph unicode="&#x2c6;" horiz-adv-x="500" d="M270 694l-85 -76q-22 -18 -29 -18l-14 2q1 5 8 12l91 88q20 18 32 18h8q14 0 24 -18l53 -88q4 -6 2 -12q-1 -4 -6 -3q-4 1 -7 1q-4 0 -8 2.5t-6 4.5t-5 6.5t-4 5.5z" />
<glyph unicode="&#x2dc;" horiz-adv-x="500" d="M137 602q-6 -12 -16 -12q-16 0 -16 13q0 2 4 14q7 23 31 41.5t45 18.5q19 0 65 -19t63 -19q31 0 50 43q0 1 2 6.5t4.5 8t6.5 2.5q18 0 18 -17q0 -6 -2 -12q-22 -68 -79 -68q-18 0 -64 19.5t-64 19.5q-31 0 -48 -39z" />
<glyph unicode="&#x2000;" horiz-adv-x="461" />
<glyph unicode="&#x2001;" horiz-adv-x="923" />
<glyph unicode="&#x2002;" horiz-adv-x="461" />
<glyph unicode="&#x2003;" horiz-adv-x="923" />
<glyph unicode="&#x2004;" horiz-adv-x="307" />
<glyph unicode="&#x2005;" horiz-adv-x="230" />
<glyph unicode="&#x2006;" horiz-adv-x="153" />
<glyph unicode="&#x2007;" horiz-adv-x="153" />
<glyph unicode="&#x2008;" horiz-adv-x="115" />
<glyph unicode="&#x2009;" horiz-adv-x="184" />
<glyph unicode="&#x200a;" horiz-adv-x="51" />
<glyph unicode="&#x2010;" horiz-adv-x="408" d="M76 340q-10 0 -10 9q0 11 10 11h228q9 0 9 -11q0 -9 -9 -9h-228z" />
<glyph unicode="&#x2011;" horiz-adv-x="408" d="M76 340q-10 0 -10 9q0 11 10 11h228q9 0 9 -11q0 -9 -9 -9h-228z" />
<glyph unicode="&#x2018;" horiz-adv-x="230" d="M124 620q0 -6 -6 -6h-3q-38 10 -38 55v1v3v3v3q0 1 1 2q5 18 23 18q11 0 18.5 -7.5t7.5 -18.5q0 -10 -7.5 -17t-18.5 -7h-6q7 -16 24 -20q8 -4 5 -9z" />
<glyph unicode="&#x2019;" horiz-adv-x="230" d="M62 621q-3 5 5 9q18 4 23 20h-5q-11 0 -18.5 7t-7.5 17t7.5 18t18.5 8q18 0 23 -18q0 -2 1 -2v-10q0 -45 -38 -55h-3q-6 0 -6 6z" />
<glyph unicode="&#x201c;" horiz-adv-x="410" d="M391 689q-1 -7 -11 -13q-57 -27 -66 -77q26 -7 19 -35l-6 -21q-3 -14 -15 -23.5t-25 -9.5q-14 0 -21.5 10t-4.5 23l7 25q18 77 52 104q39 32 59 32q15 0 12 -15zM211 689q-1 -7 -11 -13q-57 -27 -66 -77q26 -7 19 -35l-6 -21q-3 -14 -15 -23.5t-25 -9.5q-14 0 -21.5 10 t-4.5 23l7 25q18 77 52 104q39 32 59 32q15 0 12 -15z" />
<glyph unicode="&#x201d;" horiz-adv-x="410" d="M61 525q1 7 11 13q57 27 66 77q-26 7 -19 35l6 21q3 14 15 23.5t25 9.5q14 0 21.5 -10t4.5 -23l-7 -25q-18 -77 -52 -104q-39 -32 -59 -32q-15 0 -12 15zM241 525q1 7 11 13q57 27 66 77q-26 7 -19 35l6 21q3 14 15 23.5t25 9.5q14 0 21.5 -10t4.5 -23l-7 -25 q-18 -77 -52 -104q-39 -32 -59 -32q-15 0 -12 15z" />
<glyph unicode="&#x201e;" horiz-adv-x="410" d="M56 -90q4 9 12 13q59 29 67 77q-26 8 -18 35l5 21q4 14 16 23.5t26 9.5t21 -9.5t3 -23.5l-6 -25q-21 -77 -54 -104q-41 -32 -61 -32q-14 0 -11 15zM236 -90q4 9 12 13q59 29 67 77q-26 8 -18 35l5 21q4 14 16.5 23.5t25.5 9.5q14 0 21 -10t3 -23l-6 -25q-21 -77 -54 -104 q-41 -32 -61 -32q-14 0 -11 15z" />
<glyph unicode="&#x2026;" horiz-adv-x="680" d="M132 28q0 -10 -7 -17.5t-17 -7.5t-18 7.5t-8 17.5t7.5 17.5t18.5 7.5q10 0 17 -7.5t7 -17.5zM288 28q0 -10 -7 -17.5t-17 -7.5t-18 7.5t-8 17.5t7.5 17.5t18.5 7.5q10 0 17 -7.5t7 -17.5zM444 28q0 -10 -7 -17.5t-17 -7.5t-18 7.5t-8 17.5t7.5 17.5t18.5 7.5 q10 0 17 -7.5t7 -17.5z" />
<glyph unicode="&#x202f;" horiz-adv-x="184" />
<glyph unicode="&#x2039;" horiz-adv-x="311" d="M267 446q-1 -10 -7 -16l-173 -180l110 -178q6 -8 4 -19t-14 -11q-14 0 -19 9l-106 178q-7 13 -6 22q3 9 14 22l169 179q3 3 10 4t12.5 -1.5t5.5 -8.5z" />
<glyph unicode="&#x203a;" horiz-adv-x="311" d="M68 53q2 11 7 16l173 180l-110 178q-6 8 -4 19t14 11q14 0 19 -9l106 -178q7 -13 6 -22q-3 -9 -14 -22l-169 -179q-3 -3 -10 -4t-12.5 1.5t-5.5 8.5z" />
<glyph unicode="&#x205f;" horiz-adv-x="230" />
<glyph unicode="&#x2122;" horiz-adv-x="690" d="M80 400q-5 0 -5 6l49 281h-97q-5 0 -5 5q0 6 5 6h208q5 0 5 -6q0 -5 -5 -5h-100l-49 -283q-2 -4 -6 -4zM563 698q5 0 5 -6l-51 -287q-2 -5 -5 -5h-2q-4 1 -4 7l48 270l-135 -151q-2 -2 -4 -2h-1h-1q-4 0 -4 3l-82 151l-49 -273q-2 -5 -5 -5h-1q-5 2 -5 7l51 287q2 4 6 4 h1q3 0 4 -3l86 -158l142 159q2 2 5 2h1z" />
</font>
</defs>
</svg>
