<?xml version="1.0" standalone="no"?>
<!DOCTYPE svg PUBLIC "-//W3C//DTD SVG 1.1//EN" "http://www.w3.org/Graphics/SVG/1.1/DTD/svg11.dtd" >
<svg xmlns="http://www.w3.org/2000/svg">
<metadata>
This is a custom SVG webfont generated by Font Squirrel.
Copyright   : Copyright (c) Andrew Paglinawan, 2008. All rights reserved.
Designer    : Andrew Paglinawan
Foundry     : Andrew Paglinawan
</metadata>
<defs>
<font id="webfont" horiz-adv-x="613" >
<font-face units-per-em="1000" ascent="800" descent="-200" />
<missing-glyph horiz-adv-x="300" />
<glyph unicode=" "  horiz-adv-x="300" />
<glyph unicode="&#x09;" horiz-adv-x="300" />
<glyph unicode="&#xa0;" horiz-adv-x="300" />
<glyph unicode="!" horiz-adv-x="252" d="M239 698q10 -2 15.5 -10.5t4.5 -18.5l-89 -502q-3 -20 -24 -20h-4q-23 5 -20 29l89 502q1 10 9.5 16t18.5 4zM128 70q23 -5 20 -29l-4 -23q-1 -9 -8.5 -14.5t-15.5 -5.5h-4q-11 2 -16.5 10.5t-3.5 18.5l4 23q1 10 9.5 16t18.5 4z" />
<glyph unicode="&#x22;" horiz-adv-x="410" d="M250 461l30 215q4 26 28 26h19q16 0 16 -17q0 -1 -5 -24l-57 -201q-6 -18 -17 -18q-17 0 -14 19zM70 461l30 215q4 26 28 26h19q16 0 16 -17q0 -1 -5 -24l-57 -201q-6 -18 -17 -18q-17 0 -14 19z" />
<glyph unicode="#" horiz-adv-x="700" d="M113 25l55 162h-101q-10 0 -15.5 6.5t-4.5 16.5t9.5 17t18.5 7h109l81 236h-110q-10 0 -16 6.5t-4 16.5q1 10 9.5 17t18.5 7h118l55 165q7 22 29 22q12 0 16 -8.5t1 -20.5l-53 -158h207l55 165q7 22 29 22q12 0 16 -8.5t1 -20.5l-53 -158h100q10 0 15.5 -6.5t4.5 -16.5 t-9.5 -17t-18.5 -7h-108l-81 -236h109q10 0 15.5 -6.5t4.5 -16.5t-9.5 -17t-18.5 -7h-117l-57 -169q-7 -22 -29 -22q-12 0 -16 8.5t-1 20.5l55 162h-207l-57 -169q-7 -22 -29 -22q-12 0 -16 8.5t-1 20.5zM232 234h207l81 236h-207z" />
<glyph unicode="$" horiz-adv-x="632" d="M454 738q3 10 12 17t19 7t15 -7t2 -17l-9 -40q92 -8 160 -70q11 -11 8 -23q-2 -10 -11.5 -17.5t-20.5 -7.5q-10 0 -16 7q-56 56 -134 65l-71 -280q108 -24 148 -68.5t22 -118.5q-20 -79 -93 -130.5t-168 -54.5l-19 -78q-3 -10 -12 -17t-19 -7t-15 7t-2 17l19 79 q-122 10 -201 97q-8 9 -5 21q2 10 11.5 17.5t19.5 7.5q11 0 16 -7q66 -80 172 -91l73 285q-107 25 -145.5 69t-19.5 119q19 76 91.5 127.5t163.5 53.5zM526 181q13 54 -14.5 86.5t-115.5 53.5l-70 -276q74 1 130 39.5t70 96.5zM242 523q-14 -54 12 -86.5t114 -54.5l68 273 q-72 -1 -126 -39t-68 -93z" />
<glyph unicode="&#x26;" horiz-adv-x="696" d="M569 421q10 1 17.5 -6t8.5 -17v-10q0 -61 -39 -92q-18 -15 -43 -22v-10q0 -23 -4 -40q-16 -94 -92.5 -159t-171.5 -66q-84 0 -141 55q-55 55 -55 138q0 19 3 40q11 58 46.5 107.5t87.5 79.5q-27 38 -27 86q0 15 3 29q12 69 67.5 116.5t125.5 48.5q64 0 105 -41t41 -103 q0 -14 -3 -29q-1 -10 -9.5 -16t-18.5 -4q-10 1 -16 9.5t-4 18.5q2 16 2 21q-1 42 -27 68t-70 27q-50 1 -93.5 -36.5t-51.5 -87.5q-2 -7 -2 -21q0 -48 33 -73q18 -15 4 -35l-2 -1l-1 -1l-2 -2q-1 -1 -2.5 -2t-2.5 -1q-52 -23 -88.5 -68.5t-45.5 -98.5q-3 -15 -3 -31 q1 -63 41.5 -103t105.5 -41q75 -1 139 53.5t77 130.5q3 16 3 32v6q-9 1 -25 1q-96 0 -132 -44q-22 -24 -22 -58q0 -4 1 -5v-1q1 -10 -5 -18t-16 -9h-4q-9 0 -15.5 6t-8.5 15q0 5 -1 12q3 54 33 90q51 61 170 61q5 0 16.5 -0.5t17.5 -0.5q1 -1 5 -1q30 0 47 16q21 18 21 54v7 q-1 10 6 17.5t17 8.5z" />
<glyph unicode="'" horiz-adv-x="230" d="M70 524q2 8 11 13q57 28 64 77q-26 7 -20 35l4 21q4 14 16 23.5t25 9.5q14 0 21.5 -10t3.5 -23l-5 -25q-16 -77 -48 -104q-41 -32 -60 -32q-15 0 -12 15z" />
<glyph unicode="(" horiz-adv-x="430" d="M92 30q-30 104 1 275q29 170 96 275q79 125 196 125q11 0 18 -8.5t5 -19.5t-12 -19.5t-21 -8.5q-79 -1 -140 -93q-58 -91 -87 -251q-27 -161 -1 -251q15 -48 40 -70.5t67 -22.5q11 0 18 -8.5t5 -19.5q-2 -12 -12 -20t-21 -8h-2q-58 0 -96 34t-54 91z" />
<glyph unicode=")" horiz-adv-x="430" d="M379 580q30 -104 -1 -275q-29 -170 -96 -275q-79 -125 -196 -125q-11 0 -18 8.5t-5 19.5t12 19.5t21 8.5q79 1 140 93q58 91 87 251q27 161 1 251q-28 93 -107 93q-11 0 -18 8.5t-5 19.5q2 12 12 20t21 8h2q58 0 96 -34t54 -91z" />
<glyph unicode="*" horiz-adv-x="430" d="M186 422l27 109l-102 -62q-9 -6 -17 -6t-13 6.5t-3 14.5q3 13 17 19l112 49l-94 49q-14 7 -11 19q4 19 24 21q6 0 15 -6l80 -62l11 109q1 9 8 15.5t16 6.5t13.5 -6.5t2.5 -15.5l-27 -109l102 62q9 6 17 6t13 -6.5t3 -14.5q-2 -13 -17 -19l-112 -49l94 -49q13 -6 11 -19 q-2 -8 -9 -14.5t-15 -6.5q-6 0 -15 6l-80 62l-11 -109q-1 -9 -8 -15.5t-16 -6.5t-13.5 6.5t-2.5 15.5z" />
<glyph unicode="+" horiz-adv-x="620" d="M522 381q13 0 22.5 -9.5t9.5 -23.5t-9.5 -23.5t-22.5 -9.5h-185l-33 -185q-5 -27 -32 -27h-6q-13 3 -20.5 14t-5.5 24l30 174h-173q-13 0 -23 9.5t-10 23.5t10 23.5t23 9.5h185l33 185q2 14 13.5 21.5t24.5 4.5q13 -2 20.5 -13t5.5 -24l-31 -174h174z" />
<glyph unicode="," horiz-adv-x="230" d="M56 -89q2 8 11 13q57 28 64 77q-26 7 -20 35l4 21q4 14 16 23.5t25 9.5q14 0 21.5 -10t3.5 -23l-5 -25q-16 -77 -48 -104q-41 -32 -60 -32q-15 0 -12 15z" />
<glyph unicode="-" horiz-adv-x="408" d="M85 328q-19 0 -19 20q0 18 19 18h213q19 0 19 -18q0 -9 -5.5 -14.5t-13.5 -5.5h-213z" />
<glyph unicode="&#xad;" horiz-adv-x="408" d="M85 328q-19 0 -19 20q0 18 19 18h213q19 0 19 -18q0 -9 -5.5 -14.5t-13.5 -5.5h-213z" />
<glyph unicode="." horiz-adv-x="230" d="M201 58q-5 -25 -23 -41.5t-43 -16.5t-38.5 16.5t-8.5 41.5q5 24 23.5 40.5t42.5 16.5q25 0 38.5 -16.5t8.5 -40.5z" />
<glyph unicode="/" horiz-adv-x="500" d="M12 1q-22 11 -13 33l273 648q11 21 32 13q10 -4 13.5 -13t-0.5 -19l-273 -648q-6 -15 -22 -15q-7 0 -10 1z" />
<glyph unicode="0" horiz-adv-x="710" d="M372 700q89 0 143 -79q50 -74 50 -188q0 -39 -8 -87l-24 4l24 -4q-24 -139 -110 -242q-89 -104 -189 -104h-1q-87 0 -142 80q-50 75 -50 187q0 39 8 87q26 143 110 242q89 104 189 104zM509 354q7 39 7 79q0 99 -42 160q-40 58 -102 58q-79 0 -152 -86q-77 -91 -99 -219 q-7 -38 -7 -79q0 -99 42 -160q40 -58 102 -58q79 0 152 87q76 89 99 218z" />
<glyph unicode="1" horiz-adv-x="335" d="M232 672l-115 -652q-4 -20 -24 -20q-2 0 -4 1q-10 1 -16 9.5t-4 18.5l106 601l-106 -57q-5 -3 -11 -3q-14 0 -22 13q-11 22 10 33l151 81v1q2 0 3 1h2l2 1h3h2h2h1q1 0 2 -1h2l2 -1l2 -1l2 -1l2 -2l2 -2q1 -1 2 -1q0 -2 1 -2q0 -1 1 -2v-1q1 -1 1 -2l1 -1v-1v-2v-3 q1 -1 0 -2v-3z" />
<glyph unicode="2" horiz-adv-x="590" d="M572 508q-1 -57 -29 -112t-78 -94l-322 -252h322q10 0 17.5 -7t7.5 -17t-7 -17.5t-18 -7.5h-390h-2h-1q-13 0 -20 10q-6 7 -4.5 17.5t9.5 16.5l378 295q42 33 65 78t23 90q0 50 -27 87q-42 57 -120 57q-70 0 -132 -47l-39 -32q-8 -6 -18.5 -4.5t-16.5 9.5t-5 18t9 16 l40 31q74 58 162 58q103 0 159 -77q37 -50 37 -116z" />
<glyph unicode="3" horiz-adv-x="610" d="M587 664q-4 -6 -7 -8l-214 -186q69 -15 108 -64q58 -68 40 -168q-16 -99 -99 -168q-84 -70 -180 -70h-1q-98 0 -155 70q-6 7 -4 17t10 18q9 7 19.5 7t16.5 -7q45 -54 122 -54t143 54q65 56 78 133q13 79 -31 132q-45 55 -123 55q-11 0 -18 10h-1q-14 18 6 36l206 179 h-268q-10 0 -16.5 7t-4.5 18t11 18t19 7h327q11 0 16.5 -7.5t3.5 -17.5q0 -5 -4 -11z" />
<glyph unicode="4" horiz-adv-x="664" d="M554 194q10 0 17.5 -7t7.5 -17t-7.5 -17.5t-17.5 -7.5h-51l-22 -124q-4 -20 -24 -20q-3 0 -4 1q-10 1 -16 9.5t-4 18.5l20 115h-377h-1h-1q-10 0 -17 7q-17 18 0 35l497 507q1 0 1 1q1 0 3 2q1 1 2 1q1 1 2 1l1 1h1q2 0 3 1h2h2h4h1q6 -2 9 -4l2 -2t2 -1l1 -1l2 -2v-1 l1 -2q1 -1 1 -2q1 -1 1 -2t1 -2v-3v-2v-5l-85 -478h43zM132 194h330l72 409z" />
<glyph unicode="5" horiz-adv-x="605" d="M554 699q11 0 18.5 -7.5t7.5 -17.5t-7.5 -17.5t-18.5 -7.5h-309l-61 -204q60 29 119 29q100 0 158 -71q45 -55 45 -129q0 -56 -26.5 -110.5t-74.5 -96.5q-82 -68 -178 -68q-99 0 -158 71q-7 8 -6 18.5t9 17.5q21 15 36 -4q42 -53 119 -53q79 0 145 57q40 34 62 78.5 t22 89.5q0 57 -34 97q-42 53 -119 53q-79 0 -145 -57q-8 -7 -18.5 -6t-17.5 9q-5 7 -5 14q-2 5 0 11l85 285q3 10 13 15q5 4 13 4h326z" />
<glyph unicode="6" horiz-adv-x="642" d="M335 464q85 0 143 -56q56 -56 56 -139q0 -12 -4 -40l-24 4l24 -4q-17 -95 -94.5 -160.5t-173.5 -66.5q-86 0 -142 56t-56 139q0 10 1 15v3q12 171 103 310q112 170 288 177q10 1 17.5 -6t7.5 -17q1 -10 -6 -17.5t-17 -8.5q-149 -5 -249 -155q-29 -46 -54 -107 q79 73 180 73zM482 237q3 17 3 32q-1 64 -42 104.5t-108 41.5h-1q-76 0 -140.5 -55t-77.5 -131q-3 -17 -3 -32q1 -64 42 -104.5t107 -41.5q76 -1 141.5 54.5t78.5 131.5z" />
<glyph unicode="7" horiz-adv-x="587" d="M503 665l-1 -1l-389 -651q-6 -12 -21 -12q-7 0 -12 4q-9 5 -11.5 15t2.5 18l367 614h-334q-10 0 -17 7.5t-7 17.5t7 17t17 7h377h2h3q1 -1 2 -1t2 -1q2 0 3 -1h1v-1l1 -1h2l1 -1v-1l2 -2l1 -1l2 -2q0 -2 1 -2q0 -2 1 -3v-2q0 -1 1 -2v-3v-2q0 -2 -1 -2v-3q0 -1 -1 -2v-1 q0 -1 -1 -2z" />
<glyph unicode="8" horiz-adv-x="630" d="M409 435q29 -14 52 -36q55 -55 55 -137q0 -20 -3 -39q-17 -93 -93 -157.5t-170 -65.5q-83 0 -140 55q-55 55 -55 136q0 23 4 40q13 71 62 127t117 80l-7 7q-35 35 -35 88q0 17 2 26q11 59 59 99.5t108 41.5q55 0 91 -36q35 -35 35 -88q0 -17 -2 -26q-14 -75 -80 -115z M221 554l24 -4q-1 -6 -1 -17q0 -33 21 -54t57 -22q41 -1 77 30t43 72q1 6 1 17q0 33 -21 54t-57 22q-41 1 -77 -30t-43 -72zM465 231q3 17 3 31q-1 63 -41 103t-106 41q-74 0 -138 -54.5t-77 -128.5l-23 4l23 -4q-3 -17 -3 -32q1 -62 41.5 -102t105.5 -41q74 -1 138 53.5 t77 129.5z" />
<glyph unicode="9" horiz-adv-x="642" d="M479 644q56 -54 56 -139v-14v-4q-14 -172 -104 -309q-112 -171 -287 -178h-1q-10 0 -17 7t-8 17q0 10 7 17.5t17 7.5q150 7 248 156q32 48 54 106q-78 -71 -180 -73q-86 0 -142 56q-56 54 -56 139q0 21 3 40q17 95 95 160.5t173 66.5q86 0 142 -56zM264 287 q76 -1 141 54.5t78 131.5q3 17 3 32q-1 64 -41.5 104.5t-107.5 41.5q-76 1 -141 -54.5t-78 -131.5l-24 4l24 -4q-3 -17 -3 -32q1 -64 41.5 -104.5t107.5 -41.5z" />
<glyph unicode=":" horiz-adv-x="240" d="M255 563q-2 -15 -14.5 -25.5t-27.5 -10.5t-23.5 10.5t-5.5 25.5q2 15 14.5 25.5t27.5 10.5q14 0 23 -10.5t6 -25.5zM162 34q-3 -14 -15 -24.5t-27 -10.5t-23.5 10.5t-5.5 24.5q2 15 14.5 25.5t26.5 10.5q15 0 23.5 -10.5t6.5 -25.5z" />
<glyph unicode=";" horiz-adv-x="240" d="M237 600q14 0 22.5 -10.5t6.5 -25.5q-2 -14 -15 -24.5t-27 -10.5q-15 0 -23.5 10.5t-5.5 24.5q2 15 14 25.5t28 10.5zM60 -88q0 8 9 13q55 29 55 77q-26 7 -23 35l2 21q1 14 12 23.5t25 9.5t22.5 -9.5t6.5 -23.5l-2 -25q-8 -76 -39 -104q-14 -13 -31 -22.5t-24 -9.5 q-15 0 -13 15z" />
<glyph unicode="&#x3c;" horiz-adv-x="620" d="M446 692q9 8 21 7t19 -10q8 -9 7 -21t-10 -20l-354 -303l244 -299q7 -10 6 -21.5t-10 -19.5q-7 -6 -18 -6q-15 0 -22 10l-263 322q0 1 -2 3v1q-2 2 -2 4l-1 1v4q-1 1 -1 2v3v2q0 2 1 3v3q0 1 0.5 1t0.5 1v1l1 2q1 1 1 2q2 2 2 3l1 1l3 3z" />
<glyph unicode="=" horiz-adv-x="620" d="M477 267q13 0 21 -8.5t8 -19.5q0 -12 -8 -20.5t-21 -8.5h-370q-11 0 -19.5 8.5t-8.5 20.5q0 11 8.5 19.5t19.5 8.5h370zM517 490q11 0 19.5 -8.5t8.5 -19.5q0 -12 -8.5 -20.5t-19.5 -8.5h-370q-12 0 -20.5 8t-8.5 21q0 11 8.5 19.5t20.5 8.5h370z" />
<glyph unicode="&#x3e;" horiz-adv-x="620" d="M522 338q-1 -1 -1 -2q-2 -2 -2 -3q-1 0 -1 -0.5t-1 -0.5q0 -1 -2 -3l-376 -321q-7 -7 -18 -7q-13 0 -22 10q-8 9 -7 21t10 19l354 303l-244 300q-7 9 -6 20.5t10 19.5t21 7t19 -11l263 -321q1 -1 1 -2t1 -2q2 -4 2 -5q1 0 1 -1q0 -2 1 -4v-1v-3v-3q0 -1 -1 -2v-3 q0 -1 -0.5 -1t-0.5 -1t-1 -3z" />
<glyph unicode="?" horiz-adv-x="534" d="M139 68q10 -2 15.5 -10t3.5 -17l-4 -22q-3 -20 -23 -20q-2 0 -4 1q-9 2 -14.5 9.5t-4.5 17.5l4 22q2 9 10 14.5t17 4.5zM247 699q80 0 132 -52q53 -51 53 -130q0 -12 -4 -38q-15 -83 -80.5 -142.5t-149.5 -67.5l-19 -111q-3 -20 -23 -20q-3 0 -4 1q-10 1 -15.5 9t-3.5 18 l22 125q0 1 1 2q2 21 23 21q70 -1 130.5 50.5t72.5 122.5q3 16 3 30q-1 59 -38.5 97t-99.5 39q-47 0 -91 -23.5t-74 -63.5q-6 -8 -15.5 -9t-17.5 5q-8 5 -9 14.5t5 17.5q36 48 89.5 76.5t112.5 28.5z" />
<glyph unicode="@" horiz-adv-x="980" d="M136 84q-83 83 -83 209q0 26 5 61q26 144 144 244.5t263 101.5q129 0 214 -85q84 -82 84 -209q0 -30 -6 -61q-15 -85 -66 -159l-5 -6q-5 -6 -13.5 -15t-20 -18.5t-28 -18.5t-33.5 -13q-14 -2 -20 -2q-31 -1 -50 23q-13 17 -13 44v12l4 24q-61 -54 -133 -54q-66 0 -109 46 q-43 47 -42 111q0 23 3 35q14 76 73 129t133 54q66 0 109 -46q42 -44 42 -111q0 -17 -3 -35q-1 -1 -1 -4t-1 -4v-3l-26 -149q-1 -1 -1 -3v-2q0 -10 4 -14q3 -4 11 -4q5 0 9 1q21 4 41.5 21.5t28.5 29.5l1 1q47 67 58 139q5 30 5 52q-1 107 -70 175.5t-179 69.5 q-125 0 -231 -90t-128 -216q-4 -24 -4 -52q0 -106 69 -175t179 -70q35 0 77 10q10 2 18.5 -3t10.5 -15q3 -10 -2.5 -19t-15.5 -11q-40 -10 -88 -10q-130 0 -214 84zM279 345q-3 -13 -3 -26q1 -48 29 -77.5t74 -30.5q54 -1 101 41.5t57 101.5q2 9 2 26q-1 48 -28.5 77.5 t-73.5 30.5h-2q-53 0 -99.5 -42.5t-56.5 -100.5z" />
<glyph unicode="A" horiz-adv-x="646" d="M518 182h-321l-93 -169q-6 -13 -21 -13q-6 0 -12 3q-21 12 -10 33l360 651q6 13 22 13q22 0 25 -20l130 -651q2 -10 -3.5 -18.5t-15.5 -10.5h-5q-21 0 -24 20zM508 231l-75 377l-209 -377h284z" />
<glyph unicode="B" horiz-adv-x="594" d="M126 1q-24 6 -19 29l114 651q5 20 26 20h1h153q65 0 108 -43q42 -40 42 -105q0 -15 -3 -30q-15 -85 -89 -134q33 -14 56 -37q50 -48 48 -120q0 -17 -3 -35q-15 -82 -81 -138.5t-149 -57.5h-197h-1h-1h-5zM515 232q-1 52 -34.5 85.5t-88.5 34.5h-179l-53 -302h170 q63 -1 117 45.5t65 109.5q3 13 3 27zM502 553q-1 44 -28.5 71t-72.5 28h-135l-44 -250h126q53 -1 98.5 38t53.5 91q2 8 2 22z" />
<glyph unicode="C" horiz-adv-x="719" d="M379 0q-133 0 -220 84q-86 84 -86 211q0 34 5 59q26 145 147 245t269 101q125 0 212 -77q8 -7 8.5 -17.5t-6.5 -17.5q-16 -18 -34 -2q-73 65 -180 65q-129 1 -237.5 -89.5t-130.5 -215.5q-4 -24 -4 -51q0 -107 71.5 -176t185.5 -70q109 0 207 66q19 14 34 -6 q14 -19 -6 -34q-110 -75 -235 -75z" />
<glyph unicode="D" horiz-adv-x="719" d="M126 -1q-23 5 -20 29l115 651q1 9 8 14.5t16 5.5h1h130q130 0 214 -84q83 -83 83 -209q0 -26 -5 -61q-26 -144 -144 -244.5t-263 -101.5h-130h-1h-4zM266 650l-106 -602h101q125 -1 231 89.5t128 215.5q4 24 4 53q-1 106 -69.5 174.5t-178.5 69.5h-110z" />
<glyph unicode="E" horiz-adv-x="593" d="M126 -2q-23 5 -20 29l115 651q3 20 25 20h1h359q10 0 17 -7.5t7 -17.5t-7 -17t-17 -7h-340l-49 -277h290q10 0 17 -7t7 -17t-7 -17.5t-17 -7.5h-299l-49 -276h332q10 0 17 -7.5t7 -17.5t-7 -17t-17 -7h-359h-1h-1h-4z" />
<glyph unicode="F" horiz-adv-x="600" d="M126 2q-24 6 -19 29l114 651q3 20 25 20h2h358q10 0 17 -7.5t7 -17.5t-7 -17t-17 -7h-340l-49 -277h290q10 0 17 -7t7 -17t-7 -17.5t-17 -7.5h-298l-54 -305q-1 -9 -8 -14.5t-16 -5.5h-5z" />
<glyph unicode="G" horiz-adv-x="800" d="M380 2q-134 0 -220 84q-87 84 -87 211q0 29 6 59q17 95 78 174.5t150.5 125.5t187.5 46q125 0 212 -77q8 -7 8.5 -17t-6.5 -18t-17 -8.5t-18 6.5q-72 65 -179 65q-129 1 -238 -89.5t-130 -215.5q-5 -30 -5 -51q1 -107 72.5 -176t185.5 -70q103 0 199 61l35 201h-185 q-10 0 -17 7t-7 17t7 17.5t17 7.5h212h1q4 0 5 -1q10 -1 16 -9.5t4 -18.5l-42 -238q0 -3 -2 -7q0 -1 -1 -1v-1q-5 -8 -8 -9q-109 -75 -234 -75z" />
<glyph unicode="H" horiz-adv-x="760" d="M249 697q10 -1 16 -9.5t4 -18.5l-52 -297h359l54 305q1 10 9.5 16t18.5 4q10 -1 16 -9.5t4 -18.5l-115 -651q-1 -9 -8 -14.5t-16 -5.5h-4q-10 1 -16 9.5t-4 18.5l52 297h-359l-54 -305q-3 -20 -24 -20h-4q-10 1 -16 9.5t-4 18.5l115 651q1 10 9.5 16t18.5 4z" />
<glyph unicode="I" horiz-adv-x="305" d="M137 -2h-4q-10 1 -16 9.5t-4 18.5l115 651q1 10 9.5 16t18.5 4q10 -1 16 -9.5t4 -18.5l-115 -651q-3 -20 -24 -20z" />
<glyph unicode="J" horiz-adv-x="594" d="M93 174q8 -56 49 -91t103 -35q79 -1 146 56t81 136l77 438q1 10 9.5 16t18.5 4q10 -1 16 -9.5t4 -18.5l-77 -438q-18 -98 -97.5 -165.5t-177.5 -67.5h-1q-78 0 -133.5 47.5t-66.5 120.5q-1 10 5 18t16 10t18.5 -4.5t9.5 -16.5z" />
<glyph unicode="K" horiz-adv-x="715" d="M249 701q10 -1 16 -9.5t4 -18.5l-70 -400l497 423q7 6 17 5t17 -8t6 -17.5t-9 -17.5l-318 -271l225 -348q6 -8 3.5 -18t-10.5 -16q-6 -3 -13 -3q-14 0 -21 11l-222 343l-185 -158h-1l-31 -176q-3 -20 -24 -20h-4q-10 1 -16 9.5t-4 18.5l115 651q1 10 9.5 16t18.5 4z" />
<glyph unicode="L" horiz-adv-x="619" d="M515 23q0 -10 -7 -17t-18 -7h-358h-1h-1h-4q-10 1 -16 9.5t-4 18.5l115 651q1 10 9.5 16t18.5 4q10 -1 16 -9.5t4 -18.5l-110 -623h331q10 0 17.5 -7t7.5 -17z" />
<glyph unicode="M" horiz-adv-x="868" d="M668 -1q-10 1 -16 9.5t-4 18.5l101 569l-279 -310q-6 -8 -18 -8h-1h-2q-15 0 -21 13l-170 312l-103 -584q-1 -9 -8 -14.5t-16 -5.5h-5q-10 1 -16 9.5t-4 18.5l115 651q2 9 9 15t16 5q14 2 23 -12l186 -344l312 348q8 10 19 8q3 2 5 0q10 -1 16 -9.5t4 -18.5l-115 -651 q-3 -20 -24 -20h-4z" />
<glyph unicode="N" horiz-adv-x="790" d="M106 30l114 648l1 1q0 11 12 20q22 11 33 -10l322 -591l102 580q1 10 9.5 16t18.5 4q23 -5 20 -29l-114 -647q-1 -9 -8.5 -14.5t-15.5 -5.5h-4q-11 1 -18 12q0 2 -2 4l-319 586l-103 -582q-3 -20 -24 -20h-4q-10 1 -16 9.5t-4 18.5z" />
<glyph unicode="O" horiz-adv-x="850" d="M467 700q122 0 201 -84q78 -83 78 -206q0 -32 -6 -65l-24 5l24 -5q-26 -144 -138.5 -244.5t-249.5 -100.5q-123 0 -201 83q-78 81 -78 206q0 32 6 65q26 144 138 244.5t250 101.5zM692 354q5 32 5 56q-1 105 -65 172.5t-165 68.5h-2q-116 0 -216 -90t-122 -216 q-5 -32 -5 -56q1 -105 65 -172.5t165 -68.5q117 0 217.5 90t122.5 216z" />
<glyph unicode="P" horiz-adv-x="583" d="M245 700h1h197q74 0 123 -49q48 -46 48 -120q0 -17 -3 -35q-15 -82 -81.5 -138.5t-148.5 -57.5h-178l-49 -280q-3 -20 -24 -20q-3 0 -4 1q-10 1 -16 9.5t-4 18.5l115 651q1 9 8 14.5t16 5.5zM565 531q0 53 -33.5 86t-88.5 34h-178l-53 -302h169q62 -1 117 45.5t65 109.5 q2 9 2 27z" />
<glyph unicode="Q" horiz-adv-x="844" d="M764 -50q10 -19 -11 -35q-86 -59 -168 -59h-1q-76 0 -164 57q-32 22 -79 22q-30 0 -58.5 -8t-38.5 -14h-1q-15 -8 -27 2h-1q-5 8 -6 11q-5 23 19 34l100 42q-122 17 -188 117.5t-43 233.5q26 147 142.5 251.5t255.5 105.5q92 -1 161 -49t99 -130t13 -178 q-19 -107 -92 -196t-171 -131l-109 -46q30 -6 56 -24q78 -51 140 -51q63 0 138 49q9 7 19 6t15 -10zM146 353q-22 -126 46.5 -215.5t186.5 -89.5q117 0 217.5 89.5t122.5 215.5q23 128 -46 217.5t-187 89.5q-117 0 -217 -89.5t-123 -217.5z" />
<glyph unicode="R" horiz-adv-x="625" d="M480 186q-1 50 -46 84q-28 20 -67 30h-2h-175l-49 -280q-4 -20 -24 -20q-3 0 -5 1q-10 1 -16 9.5t-4 18.5l115 651q3 20 25 20h1h196q76 0 123 -49q49 -47 49 -120q0 -17 -3 -35q-11 -60 -51 -107.5t-96 -71.5q78 -47 77 -131q0 -11 -2 -33q-7 -36 -7 -61q0 -24 5 -32 q19 2 26 -18q3 -10 -2 -18.5t-15 -11.5q-2 -2 -11 -2h-1q-22 0 -36 20q-15 21 -15 62q0 29 7 70q3 12 3 24zM252 651l-53 -302h168q63 -1 117.5 45.5t65.5 109.5q2 18 2 27q-1 53 -34.5 86t-88.5 34h-177z" />
<glyph unicode="S" horiz-adv-x="667" d="M73 100q-6 5 -5.5 14t7.5 16t16 8t15 -5q96 -89 210 -89q89 0 160 46q68 44 77 103q10 55 -39 93q-46 35 -150 56h-2q-101 20 -152 58q-63 47 -49 121q13 77 94 129q77 50 174 50q42 0 83 -14t63 -28t54 -38q16 -11 1 -30q-16 -18 -32 -6q-33 24 -52 36t-54 24.5 t-70 12.5q-81 0 -147 -42q-62 -41 -71 -94q-9 -50 36 -84q47 -35 138 -52h2q108 -21 164 -63q67 -50 53 -129q-15 -84 -102 -138q-84 -55 -187 -55q-132 1 -235 100z" />
<glyph unicode="T" horiz-adv-x="648" d="M191 2q-10 1 -16 9.5t-4 18.5l109 622h-206q-10 0 -17 7.5t-7 17.5t7 17t17 7h471q10 0 17 -7t7 -17t-7 -17.5t-17 -7.5h-215l-111 -631q-4 -20 -24 -20q-3 0 -4 1z" />
<glyph unicode="U" horiz-adv-x="814" d="M724 701q23 -5 20 -29l-70 -392q-21 -116 -116 -197t-211 -82h-1q-103 0 -173 68q-68 68 -68 170q0 21 5 49l69 393q1 10 9.5 16t18.5 4q23 -5 20 -29l-69 -392q-4 -19 -4 -41q1 -82 54 -135t139 -54q97 -1 180 70t99 168l70 393q1 10 9.5 16t18.5 4z" />
<glyph unicode="V" horiz-adv-x="750" d="M653 664l-389 -651l-1 -1l-3 -3q0 -1 -0.5 -1t-0.5 -1l-1 -1q-2 0 -2 -1l-1 -1h-1l-2 -1l-2 -1h-1q-2 -1 -6 -1t-6 1h-1q-4 2 -5 3h-1q0 1 -1 1t-2 1l-1 1l-3 3q-2 3 -4 9l-159 651q-3 10 2.5 18.5t15.5 10.5q10 3 18.5 -2t10.5 -15l145 -594l359 600q5 9 15 11.5 t18 -2.5q9 -5 11.5 -15t-2.5 -19z" />
<glyph unicode="W" horiz-adv-x="1102" d="M1061 662l-389 -651l-1 -1l-1 -1l-2 -2q0 -1 -0.5 -1t-0.5 -1q-1 0 -3 -2l-1 -1h-1q-1 -1 -4 -1l-1 -1h-4q-1 0 -1 -0.5t-1 -0.5t-3 0.5t-3 0.5h-1q-4 2 -5 3h-1q-2 2 -3 2l-1 1q-2 2 -2 3q-1 0 -1 1q-2 2 -2 3q-1 1 -1 2.5t-1 2.5l-103 423l-257 -430l-1 -1q0 -2 -3 -3 q0 -1 -0.5 -1t-0.5 -1q-1 0 -3 -2q-1 0 -1 -0.5t-1 -0.5q-1 -1 -4 -1l-1 -1h-4h-1l-1 -1q-1 0 -3 0.5t-3 0.5h-1q-4 2 -5 3h-1q-2 2 -3 2l-1 1q-2 2 -2 3q-1 0 -1 1q-2 2 -4 8l-159 651q-5 23 18 30q10 2 18.5 -3t10.5 -15l146 -594l254 426q8 12 22 12q9 1 16.5 -4.5 t9.5 -13.5l103 -420l358 600q5 9 15 11.5t19 -2.5q20 -13 8 -34z" />
<glyph unicode="X" horiz-adv-x="722" d="M426 345l172 -310q11 -22 -10 -34q-6 -3 -12 -3q-14 0 -21 13l-164 296l-272 -301q-8 -8 -19 -8q-9 0 -16 7q-18 16 -2 34l284 313l-172 310q-5 9 -2 18.5t11 14.5q9 5 19 2.5t15 -11.5l164 -296l272 300q7 8 17 8.5t17 -6.5q8 -7 8.5 -17.5t-6.5 -17.5z" />
<glyph unicode="Y" horiz-adv-x="604" d="M581 658l-294 -324l-55 -315q-1 -9 -8.5 -14.5t-15.5 -5.5h-5q-10 1 -16 9.5t-4 18.5l56 314l-178 321q-5 9 -2 18.5t11 14.5q9 5 19 2.5t15 -11.5l165 -299l275 303q7 8 17 8.5t18 -6.5q18 -16 2 -34z" />
<glyph unicode="Z" horiz-adv-x="667" d="M572 47q10 0 17 -7t7 -17t-7 -17.5t-17 -7.5h-476h-1q-1 0 -2 0.5t-2 0.5h-2q-1 1 -2 1t-1 0.5t-1 0.5l-2 1l-2 2q-1 0 -2 1l-2 2q0 1 -0.5 1t-0.5 1q-1 0 -1 2q-1 1 -1 2q-1 1 -1 2l-1 2v3q0 1 -1 2v1l1 1v3v2q1 1 1 3q1 1 1 2q1 1 1 2l2 2q0 1 1 1l553 610h-420 q-11 0 -18 7.5t-7 17.5t7.5 17t17.5 7h476h1h3q1 0 2 -1h2l1 -1q2 0 2 -1h1q2 -2 3 -2l1 -1q2 -2 2 -3q1 0 1 -0.5t1 -0.5q0 -2 1 -2l1 -2q0 -2 1 -2v-3q1 0 1 -2v-3v-2v-2q-1 -1 -1 -3q0 -1 -1 -2q0 -1 -1 -2q0 -2 -1 -2l-1 -2q-1 -1 -1 -2l-554 -610h421z" />
<glyph unicode="[" horiz-adv-x="430" d="M101 -104l163 778q2 10 11.5 18t20.5 8h232q7 0 12 -5.5t3 -13.5q-1 -7 -8.5 -13t-15.5 -6h-212l-157 -754h212q7 0 11.5 -5.5t2.5 -13.5q-1 -7 -8 -13t-15 -6h-232q-10 0 -16 7.5t-4 18.5z" />
<glyph unicode="\" horiz-adv-x="500" d="M320 3q-3 -1 -10 -1q-16 0 -22 15l-273 648q-4 10 -0.5 19t13.5 13q21 8 32 -13l273 -648q9 -22 -13 -33z" />
<glyph unicode="]" horiz-adv-x="430" d="M499 674l-163 -778q-2 -10 -11.5 -18t-20.5 -8h-232q-7 0 -12 5.5t-3 13.5q1 7 8.5 13t15.5 6h212l157 754h-212q-7 0 -11.5 5.5t-2.5 13.5q1 7 8 13t15 6h232q10 0 16 -7.5t4 -18.5z" />
<glyph unicode="^" horiz-adv-x="500" d="M278 659l-148 -157q-13 -14 -37 -14q-6 0 -9.5 3.5t-2.5 7.5q0 5 7 13l164 176q18 18 31 18h8q14 0 25 -18l102 -176q3 -6 3 -13q-2 -11 -17 -11q-26 0 -34 14z" />
<glyph unicode="_" horiz-adv-x="600" d="M-5 -160q-9 0 -13.5 6.5t-1.5 15.5q2 9 10.5 15.5t17.5 6.5h604q9 0 13.5 -6.5t2.5 -15.5q-3 -9 -11.5 -15.5t-17.5 -6.5h-604z" />
<glyph unicode="`" horiz-adv-x="500" d="M271 592q-18 0 -30 13l-69 77q-9 11 -8 18q1 8 16 15.5t29 7.5q16 0 25 -18l49 -93q3 -5 2 -11q0 -9 -14 -9z" />
<glyph unicode="a" horiz-adv-x="619" d="M235 0q-85 0 -141 59q-54 57 -54 144q0 25 4 45q18 100 95.5 169.5t173.5 70.5q85 0 141 -59q18 -20 29 -40l14 79q2 10 9.5 15.5t17.5 4.5q10 -2 15.5 -10t4.5 -18l-78 -440q-3 -20 -24 -20h-4q-10 2 -15.5 10t-3.5 18l11 64q-81 -90 -195 -92zM91 240q-4 -17 -4 -37 q1 -68 42 -111t106 -44q76 -1 142.5 58t80.5 142q3 20 3 37q-1 68 -41.5 111t-106.5 44h-1q-76 0 -141.5 -59t-79.5 -141z" />
<glyph unicode="b" horiz-adv-x="660" d="M115 -2q-24 6 -19 29l114 651q5 23 29 20q23 -5 20 -29l-49 -273q84 90 200 92q89 0 146 -59q56 -58 56 -146q0 -24 -4 -44l-24 4l24 -4q-18 -101 -97.5 -170.5t-177.5 -70.5h-1q-88 0 -145 59q-18 20 -29 40l-14 -79q-1 -9 -8.5 -14.5t-15.5 -5.5h-5zM409 439 q-78 0 -145.5 -59.5t-80.5 -140.5q-4 -17 -4 -36q1 -69 43 -112t111 -44q78 -1 145.5 58.5t81.5 141.5q3 18 3 36q-1 69 -42.5 112t-110.5 44h-1z" />
<glyph unicode="c" horiz-adv-x="571" d="M58 208q0 22 4 41q18 101 101.5 170.5t186.5 70.5q90 0 150 -54q17 -17 1 -34q-17 -18 -33 -2q-47 42 -118 42q-84 1 -155.5 -59t-85.5 -142q-3 -18 -3 -33q0 -69 46.5 -113.5t120.5 -45.5q72 0 136 44q8 5 18 3t15 -10q12 -20 -6 -33q-78 -52 -163 -52q-93 0 -154 59 t-61 148z" />
<glyph unicode="d" horiz-adv-x="660" d="M261 1q-88 0 -145 59q-56 58 -56 146q0 24 4 44q18 101 97.5 170.5t178.5 70.5q88 0 145 -59q12 -12 30 -40l50 289q2 10 10.5 15.5t18.5 4.5q23 -5 20 -29l-115 -651q-1 -9 -8 -14.5t-16 -5.5h-4q-11 2 -16.5 10.5t-3.5 18.5l11 63q-85 -92 -200 -92h-1zM88 246l24 -4 q-3 -20 -3 -36q1 -69 42.5 -112t110.5 -44q78 -1 146 58.5t82 141.5q3 18 3 36q-1 69 -43 112t-110 44q-78 1 -146 -58.5t-82 -141.5z" />
<glyph unicode="e" horiz-adv-x="609" d="M58 205q0 24 4 45q18 100 97.5 169.5t178.5 70.5q87 0 144 -59t57 -145q0 -8 -2 -26q0 -1 -0.5 -3t-0.5 -3q-6 -19 -23 -19h-405q-2 -10 -2 -30q0 -68 42.5 -111.5t110.5 -44.5q50 0 97 24.5t80 65.5q7 8 16.5 9t17.5 -6q18 -15 3 -32q-39 -50 -95.5 -79.5t-118.5 -29.5 h-1q-87 0 -144 59q-56 58 -56 145zM338 442q-68 1 -129.5 -44.5t-87.5 -113.5h370v2q-1 68 -43 111.5t-110 44.5z" />
<glyph unicode="f" horiz-adv-x="362" d="M327 699q10 0 15.5 -7.5t4.5 -17.5q-2 -10 -10.5 -17t-18.5 -7q-44 0 -65 -19q-23 -22 -34 -81l-9 -52h69q10 0 16 -7t4 -17q-1 -10 -9.5 -17.5t-18.5 -7.5h-69l-76 -426q-1 -10 -9.5 -17t-18.5 -7t-16 7t-4 17l75 426h-66q-10 0 -15.5 7.5t-4.5 17.5q2 10 10.5 17 t18.5 7h65l9 52q14 77 52 114q39 35 105 35z" />
<glyph unicode="g" horiz-adv-x="660" d="M257 -1q-86 0 -142 59q-55 57 -55 143q0 19 5 46q18 99 96 169.5t172 71.5q86 0 143 -59q18 -20 28 -41l14 80q5 23 27 20q11 -2 16.5 -10.5t3.5 -18.5l-39 -221l-36 -206q-18 -95 -95 -161t-171 -67q-55 0 -100 25q-9 4 -12 13.5t2 18.5q12 19 32 9q36 -18 78 -18 q74 -1 140 55.5t79 133.5l8 48q-85 -90 -193 -90h-1zM112 238q-4 -17 -4 -37q1 -69 42 -111.5t108 -42.5q75 -1 141 57.5t80 142.5q4 16 4 35q-1 70 -42 113.5t-108 43.5h-1q-74 0 -140.5 -59.5t-79.5 -141.5z" />
<glyph unicode="h" d="M93 22q0 4 1 5l114 651q2 11 10.5 16.5t18.5 3.5q10 -1 16 -9.5t4 -18.5l-42 -248q70 66 162 68q74 0 126 -50q49 -49 49 -123q0 -17 -3 -35l-48 -263q-1 -9 -8 -14.5t-16 -5.5h-5q-10 2 -15.5 10t-3.5 18l48 263q2 20 2 27q-1 55 -35.5 89t-90.5 35q-64 1 -120 -46.5 t-67 -112.5l-48 -263v-1q-1 -1 -1 -4l-1 -1q-1 -1 -1 -3q-1 0 -1 -0.5t-1 -0.5l-1 -2l-2 -2q-1 -1 -2 -1l-1 -1l-2 -2q-1 0 -2 -1h-2l-2 -1h-3h-2h-3h-2q-8 2 -12 6q-8 8 -8 17z" />
<glyph unicode="i" horiz-adv-x="281" d="M116 0q-10 1 -15.5 9.5t-3.5 17.5l77 443q1 10 9.5 15.5t18.5 4.5q24 -6 19 -29l-78 -442q-3 -19 -23 -19h-4zM243 584q-3 -20 -24 -20h-4q-10 2 -15.5 10t-3.5 18l4 23q1 9 9.5 15t17.5 4q10 -1 16 -9.5t4 -18.5z" />
<glyph unicode="j" horiz-adv-x="249" d="M237 586q-1 -9 -7.5 -14.5t-14.5 -5.5h-5q-9 2 -14.5 10t-3.5 18l3 23q2 9 10 14.5t16 3.5q24 -5 21 -27zM195 490q23 -4 18 -27l-102 -574q-6 -33 -32 -55.5t-60 -23.5q-10 0 -17 7t-7 17t7 16.5t17 6.5q14 -1 29 11.5t17 28.5l103 575q1 9 9 14.5t18 3.5z" />
<glyph unicode="k" horiz-adv-x="560" d="M451 -2q-13 0 -21 11l-145 224l-121 -102q0 -1 -1 -1l-19 -112q-5 -20 -24 -20h-5q-10 1 -16 9.5t-4 18.5l115 651q2 11 10.5 16.5t18.5 3.5t15.5 -10t3.5 -18l-81 -463l338 287q7 7 17.5 6t16.5 -9q16 -18 -2 -34l-225 -191l149 -230q6 -8 4 -18t-11 -15q-5 -4 -13 -4z " />
<glyph unicode="l" horiz-adv-x="249" d="M245 699q10 -1 16 -9.5t4 -18.5l-115 -651q-3 -20 -24 -20h-4q-10 1 -16 9.5t-4 18.5l115 651q1 10 9.5 16t18.5 4z" />
<glyph unicode="m" horiz-adv-x="951" d="M141 12q-1 0 -1 -1t-1 -2q0 -1 -1 -1q0 -1 -2 -3l-1 -1l-2 -2q-1 0 -1 -1q-2 0 -3 -1q-1 0 -1 -1h-3l-1 -1h-3h-2h-3h-1q-10 1 -16 9.5t-4 18.5l47 266v1l31 175q6 24 28 19q10 -2 15.5 -9.5t3.5 -17.5l-6 -39q67 65 158 67q76 0 123 -49q24 -24 36 -56q34 47 84.5 75.5 t107.5 29.5q74 0 123 -49q48 -48 48 -120q0 -17 -3 -35l-47 -267q-3 -19 -24 -19h-4q-10 2 -15.5 10t-3.5 18l47 266q2 20 2 27q-1 53 -34.5 86.5t-88.5 34.5q-63 0 -117 -45t-65 -108q0 -1 -1 -3l-47 -267q-3 -16 -18 -19h-4h-1h-3h-2q-10 1 -15.5 9.5t-3.5 18.5l47 266 q0 2 1 3q2 16 2 24q-1 53 -34.5 86.5t-89.5 34.5q-63 1 -117.5 -45.5t-65.5 -110.5l-47 -267q0 -3 -1 -4v-1z" />
<glyph unicode="n" d="M445 28l46 264q2 20 2 27q-1 53 -34 86.5t-89 34.5q-62 1 -116.5 -45.5t-65.5 -109.5l-46 -266q0 -1 -0.5 -2t-0.5 -2l-1 -1v-1q0 -1 -1 -2l-1 -1l-1 -1q-1 -1 -1 -2q-1 0 -1 -1l-2 -2q-1 0 -1 -1q-2 0 -3 -1q-1 0 -1 -1h-3q-1 -1 -2 -1h-2h-2h-3h-2q-10 1 -15.5 9.5 t-3.5 18.5l47 264v1l30 175q2 10 10 15.5t18 3.5q10 -1 16 -9t4 -18l-7 -39q69 65 157 67q76 0 123 -49q48 -48 48 -120q0 -17 -3 -35l-47 -265q-3 -19 -24 -19h-3q-10 2 -15.5 10t-3.5 18z" />
<glyph unicode="o" horiz-adv-x="625" d="M541 286q0 -25 -4 -46l-23 5l23 -5q-18 -100 -96 -170t-174 -70h-1q-85 0 -141 59q-55 58 -55 145q0 24 4 45q18 100 96.5 170t174.5 71q85 0 142 -60q54 -56 54 -144zM490 249q4 24 4 37q-1 68 -42 111.5t-107 44.5h-2q-76 0 -142 -59.5t-80 -142.5q-3 -18 -3 -36 q1 -69 42 -112.5t107 -44.5q76 -1 142.5 59t80.5 143z" />
<glyph unicode="p" horiz-adv-x="660" d="M115 -204q-23 5 -20 29l75 424l39 219q1 10 9.5 16t18.5 4q11 -2 16.5 -10.5t3.5 -18.5l-11 -62q85 89 195 91q90 0 144 -59q57 -57 57 -145q0 -23 -4 -43q-18 -99 -96.5 -167.5t-174.5 -68.5q-88 0 -144 58q-12 10 -30 38l-50 -285q-3 -20 -24 -20h-4zM440 439 q-75 0 -141.5 -58.5t-80.5 -139.5q-3 -19 -3 -36q1 -67 43 -109t109 -43q76 -1 143 57.5t80 138.5q3 18 3 35q-1 69 -42.5 111.5t-109.5 43.5h-1z" />
<glyph unicode="q" horiz-adv-x="660" d="M430 -206q-23 5 -20 29l48 271q-81 -90 -198 -92q-87 0 -143 59q-57 59 -57 144q0 24 4 44q18 99 97 168.5t177 70.5q86 0 143 -59q12 -12 30 -40l14 79q1 10 9.5 16t18.5 4q23 -5 20 -29l-115 -645q-1 -9 -8.5 -14.5t-15.5 -5.5h-4zM260 51q78 -1 145 58t81 140 q3 19 3 36q-1 67 -43 110t-108 44q-78 1 -145 -57.5t-81 -140.5l-24 4l24 -4q-3 -19 -3 -36q1 -67 43 -110t108 -44z" />
<glyph unicode="r" horiz-adv-x="439" d="M115 2q-10 2 -15.5 9.5t-3.5 17.5l39 220v1l39 218q2 10 9.5 15.5t17.5 4.5t15.5 -9.5t3.5 -18.5l-17 -99q2 3 7 8q96 119 212 119q10 0 17 -7t7 -17t-7 -17t-17 -7q-80 1 -159 -81q-42 -45 -79 -115l-3 -6l-38 -217q-3 -20 -24 -20q-3 0 -4 1z" />
<glyph unicode="s" horiz-adv-x="492" d="M60 69q-16 16 2 34q8 8 18 9t17 -6q60 -58 135 -58q58 0 102 29q42 28 47 62q6 32 -24 55q-29 23 -97 36l-1 1q-71 13 -106 40q-46 34 -36 89q10 56 69 95q56 35 123 35q30 0 58.5 -10t43 -19t37.5 -26q7 -5 7.5 -15t-6.5 -18t-17 -10t-17 3q-66 48 -115 48 q-51 0 -93 -27q-37 -25 -42 -56q-5 -27 21 -49q30 -22 89 -33l2 -1q74 -13 114 -43q50 -36 38 -95q-10 -59 -73 -100q-59 -39 -132 -39q-92 1 -164 69z" />
<glyph unicode="t" horiz-adv-x="400" d="M315 490q10 0 17 -7.5t7 -17.5t-7 -17t-17 -7h-134l-65 -358q-1 -2 -1 -7q2 -25 27 -26q10 0 17.5 -7t7.5 -17t-7.5 -17.5t-17.5 -7.5q-32 0 -54 22t-22 53q0 2 0.5 7t0.5 8l64 350h-64q-10 0 -17.5 7t-7.5 17q0 11 7 18t18 7h73l31 191q5 23 29 20q10 -2 15.5 -10 t4.5 -18l-31 -183h126z" />
<glyph unicode="u" d="M509 488q10 -2 15.5 -10t3.5 -18l-46 -265q-15 -82 -81 -137.5t-148 -56.5q-73 0 -122 49q-48 48 -48 119q0 17 3 35l47 264q2 10 10 15.5t18 4.5q9 -2 14.5 -10t3.5 -18l-46 -265q-2 -18 -2 -26q1 -53 34 -86t88 -34q63 -1 117.5 45.5t64.5 109.5l47 264q2 10 9.5 15.5 t17.5 4.5z" />
<glyph unicode="v" horiz-adv-x="582" d="M459 483q8 -5 10.5 -15t-2.5 -18l-261 -436q-1 0 -1 -1l-3 -3v-1l-1 -1q-1 0 -1 -1l-2 -1h-1l-1 -1l-4 -2h-1q-2 -1 -6 -1h-3l-2 1h-1q-4 2 -5 3h-1l-2 2l-1 1l-3 3q-2 2 -2 4q-2 2 -2 4l-107 437q-2 9 2.5 17.5t14.5 11.5q10 2 18 -3t10 -15l94 -381l231 388q13 20 33 8 z" />
<glyph unicode="w" horiz-adv-x="861" d="M735 483q8 -5 10.5 -15t-2.5 -18l-260 -436q-1 -3 -4 -4l-1 -1v-1l-1 -1q-1 -1 -2 -1t-1 -0.5t-1 -0.5l-4 -2h-1h-4q-1 -1 -2 -1t-2.5 0.5t-2.5 0.5h-1l-6 3h-1l-2 2l-1 1l-3 3q-2 2 -2 4q-2 4 -2 5l-65 266l-162 -273l-1 -1q0 -2 -3 -3v-1l-1 -1q-1 0 -1 -1l-2 -1h-1 l-1 -1q-1 -1 -4 -1q0 -1 -1 -1h-3l-1 -1h-2h-3l-2 1h-1l-6 3h-1l-2 2l-1 1l-3 3q-2 2 -2 4q-2 4 -2 5l-107 436q-5 22 17 29q10 2 18.5 -3t10.5 -15l94 -381l161 270q6 12 20 12q20 2 24 -18l66 -264l231 388q13 20 32 8z" />
<glyph unicode="x" horiz-adv-x="570" d="M472 478q16 18 34 2q17 -17 1 -34l-187 -205l113 -203q10 -21 -9 -33q-6 -3 -12 -3q-14 0 -20 13l-104 190l-176 -195q-8 -8 -18 -8t-16 7q-8 6 -8.5 16t6.5 17l187 205l-113 204q-5 8 -2 17.5t11 14.5q21 12 33 -9l104 -190z" />
<glyph unicode="y" horiz-adv-x="588" d="M502 480q6 -6 6 -13q2 -3 0 -7l-75 -426q-17 -95 -94.5 -160.5t-172.5 -66.5q-52 0 -98 23q-21 12 -10 34q11 20 32 9q34 -18 76 -18q76 -1 141.5 55t78.5 132l4 23q-69 -64 -157 -64q-74 0 -123 47q-47 47 -47 119q0 18 3 36l46 266q2 9 10 14.5t18 4.5q24 -6 19 -28 l-47 -266q-2 -9 -2 -27q1 -52 34.5 -85.5t88.5 -33.5q62 -1 116.5 45t64.5 110l47 266q1 9 9.5 15t17.5 4t14 -8z" />
<glyph unicode="z" horiz-adv-x="554" d="M509 456q0 -2 -1 -2l-1 -2q-1 -1 -1 -2l-367 -404h271q10 0 17 -7t7 -17t-7 -17t-17 -7h-325h-1h-1q-1 0 -2 1h-2q-1 1 -3 1q-1 1 -2 1q-1 1 -2 1q0 1 -2 1q0 1 -0.5 1t-0.5 1l-2 2q-1 0 -1 2l-1 1h-1q0 2 -1 3v2q-1 0 -1 2v2q-1 1 -1 3v2q0 1 1 2v3q1 1 1 2t1 2 q0 1 0.5 1t0.5 1l2 2v1l367 405h-271q-10 0 -17 6.5t-7 16.5t7 17t17 7h325h2h2q2 0 3 -1h2q1 -1 2 -1q1 -1 2 -1l2 -2l1 -1h1l1 -2l2 -2v-1l1 -1l1 -1v-1v-1l1 -1q0 -2 1 -2v-2v-3v-1v-1v-3q-1 -1 -1 -2t-1 -2q0 -2 -1 -2z" />
<glyph unicode="{" horiz-adv-x="480" d="M287 -139q-77 17 -114.5 44.5t-40.5 66t12 90.5l22 79q11 39 10 67.5t-25 44t-74 15.5q-25 0 -18 19q5 19 29 19q73 0 108.5 31.5t54.5 95.5l22 79q12 42 28 71t45 55t74.5 44t111.5 31q9 2 14 -2.5t3 -13.5q-5 -12 -17 -16q-112 -27 -150.5 -61.5t-60.5 -113.5l-22 -75 q-18 -63 -54 -96t-91 -48q32 -12 48.5 -27.5t22.5 -44.5t-9 -72l-22 -75q-26 -73 -5.5 -110.5t116.5 -64.5q11 -5 7 -16q-5 -20 -25 -16z" />
<glyph unicode="|" horiz-adv-x="286" d="M123 -116l157 890q6 22 26 22q9 0 14.5 -6.5t3.5 -15.5l-157 -890q-4 -22 -25 -22q-9 0 -14.5 6.5t-4.5 15.5z" />
<glyph unicode="}" horiz-adv-x="480" d="M318 713q77 -17 114.5 -44.5t40.5 -66t-12 -90.5l-22 -79q-11 -39 -10 -67.5t25 -44t74 -15.5q25 0 18 -19q-5 -19 -29 -19q-73 0 -108.5 -31.5t-54.5 -95.5l-22 -79q-12 -42 -28 -71t-45 -55t-74.5 -44t-111.5 -31q-9 -2 -14 2.5t-3 13.5q5 12 17 16q112 27 150.5 61.5 t60.5 113.5l22 75q18 63 54 96t91 48q-32 12 -48.5 27.5t-22.5 44.5t9 72l22 75q26 73 5.5 110.5t-116.5 64.5q-11 5 -7 16q5 20 25 16z" />
<glyph unicode="~" horiz-adv-x="460" d="M121 254q-7 -14 -18 -14q-18 0 -18 17q0 6 2 12q14 42 32.5 58.5t46.5 16.5q20 0 66 -20.5t62 -20.5t26 8.5t19 29.5q7 14 18 14q18 0 18 -17q0 -6 -2 -12q-14 -42 -32.5 -58.5t-46.5 -16.5q-20 0 -66 20.5t-62 20.5t-26 -8.5t-19 -29.5z" />
<glyph unicode="&#xa1;" horiz-adv-x="252" d="M115 0q-10 2 -15.5 10.5t-4.5 18.5l89 502q3 20 24 20h4q23 -5 20 -29l-89 -502q-1 -10 -9.5 -16t-18.5 -4zM226 628q-23 5 -20 29l4 23q1 9 8.5 14.5t15.5 5.5h4q11 -2 16.5 -10.5t3.5 -18.5l-4 -23q-1 -10 -9.5 -16t-18.5 -4z" />
<glyph unicode="&#xa2;" horiz-adv-x="581" d="M181 21l31 82q-72 27 -108.5 96t-21.5 154l1 2q19 108 109 187.5t198 79.5h15l25 68q8 20 27 20q12 0 18 -9t1 -22l-24 -64q63 -16 115 -75q7 -9 6 -20q-5 -25 -28 -25q-12 0 -18 8q-45 53 -95 66l-161 -432q18 -3 36 -3q87 0 173 73q11 9 20 9t14.5 -7t3.5 -16 q-1 -9 -10 -16q-99 -89 -212 -89q-26 0 -39 2l-30 -80q-8 -20 -28 -20q-12 0 -17.5 9t-0.5 22zM136 355q-13 -70 14 -126t83 -80l157 427h-9q-87 0 -157.5 -63.5t-87.5 -155.5v-2z" />
<glyph unicode="&#xa3;" horiz-adv-x="644" d="M67 13q3 11 16 14l81 18l63 260h-66q-10 0 -15.5 7t-3.5 17t11 17t19 7h66l28 118q28 115 109 181q72 58 164 58q122 0 177 -93q6 -10 3 -19q-7 -24 -31 -24q-11 0 -18 9q-25 39 -57 59.5t-87 20.5q-69 0 -123 -43q-62 -50 -85 -148l-29 -119h278q10 0 15 -7t3 -17 t-10.5 -17t-18.5 -7h-278l-62 -258h354q10 0 15 -7t3 -17t-11 -16.5t-19 -6.5h-481q-12 0 -10 13z" />
<glyph unicode="&#xa5;" horiz-adv-x="686" d="M213 24l21 143h-154q-12 0 -19 8t-5 20q2 11 11 19t21 8h154l14 100h-154q-12 0 -19 8t-5 19q2 12 11 20t21 8h124l-163 280q-4 8 -1 18.5t11 15.5q9 7 19 5.5t14 -9.5l175 -301l264 301q17 20 35 4q7 -5 7 -15.5t-7 -18.5l-248 -280h126q12 0 19 -8t5 -20 q-2 -11 -11 -19t-21 -8h-154l-14 -100h154q12 0 19 -8t5 -19q-2 -12 -11 -20t-21 -8h-154l-21 -143q-2 -10 -10 -17t-18 -7t-16 7t-4 17z" />
<glyph unicode="&#xa8;" horiz-adv-x="500" d="M138 637q3 18 17.5 30.5t32.5 12.5t28.5 -12.5t7.5 -30.5q-4 -18 -18.5 -30.5t-32.5 -12.5t-28.5 12.5t-6.5 30.5zM303 637q3 18 17.5 30.5t32.5 12.5t28.5 -12.5t7.5 -30.5q-4 -18 -18.5 -30.5t-32.5 -12.5t-28.5 12.5t-6.5 30.5z" />
<glyph unicode="&#xa9;" horiz-adv-x="830" d="M414 -12q-151 0 -256 105.5t-105 254.5v2q0 149 106 255.5t257 106.5t256 -105.5t105 -254.5v-2q0 -149 -106 -255.5t-257 -106.5zM414 16q141 0 237 97.5t96 236.5v2q0 138 -95 235t-236 97t-237 -97.5t-96 -236.5v-2q0 -138 95 -235t236 -97zM419 166q-77 0 -129.5 55 t-52.5 133v2q0 77 53 133t130 56q72 0 129 -50q9 -7 9 -18q0 -9 -6.5 -15t-15.5 -6q-7 0 -16 7q-49 42 -101 42q-59 0 -98.5 -43.5t-39.5 -104.5v-2q0 -61 40.5 -105t98.5 -44q57 0 106 44q8 5 14 5q8 0 14 -6t6 -14q0 -10 -7 -15q-62 -54 -134 -54z" />
<glyph unicode="&#xab;" horiz-adv-x="515" d="M185 44q-12 0 -17 11l-106 179q-7 13 -6 22t14 22l168 179q11 11 21 11q9 0 14.5 -6t4.5 -15q-2 -10 -9 -17l-157 -173l95 -175q5 -8 3 -17q-4 -21 -25 -21zM389 44q-12 0 -17 11l-106 179q-7 13 -6 22t14 22l168 179q11 11 21 11q9 0 14.5 -6t4.5 -15q-2 -10 -9 -17 l-157 -173l95 -175q6 -11 3 -17q-5 -21 -25 -21z" />
<glyph unicode="&#xae;" horiz-adv-x="416" d="M208 360q-73 0 -123.5 51t-50.5 123v1q0 72 51 123.5t123 51.5q73 0 123.5 -51t50.5 -123v-1q0 -72 -51 -123.5t-123 -51.5zM208 379q65 0 109.5 46t44.5 110v1q0 64 -44.5 109.5t-109.5 45.5t-109.5 -46t-44.5 -110v-1q0 -64 44.5 -109.5t109.5 -45.5zM264 435 q4 -10 14 -10h1q1 0 2 0.5t2 0.5q6 2 4 10q-2 5 -8 5q-2 1 -3 5q-3 8 -3 25q0 34 -30 50q-2 0 -3 1q36 17 36 57q0 26 -18 44.5t-44 18.5h-61h-1h-1q-7 0 -7 -8v-204q0 -8 8 -8t8 8v87h53l1 -1q16 -4 26 -11q18 -13 18 -34q0 -25 6 -36zM261 579q0 -19 -13.5 -33t-32.5 -14 h-3h-52v94h54q20 0 33.5 -14t13.5 -33z" />
<glyph unicode="&#xb4;" horiz-adv-x="500" d="M216 592q-14 0 -14 9q-1 6 2 11l49 93q9 18 25 18q14 0 29 -7.5t16 -15.5q1 -7 -8 -18l-69 -77q-12 -13 -30 -13z" />
<glyph unicode="&#xbb;" horiz-adv-x="515" d="M366 468q12 0 17 -11l106 -179q7 -13 6 -22t-14 -22l-168 -179q-11 -11 -21 -11q-9 0 -14.5 6t-4.5 15q2 10 9 17l157 173l-95 175q-5 8 -3 17q1 9 8.5 15t16.5 6zM162 468q12 0 17 -11l106 -179q7 -13 6 -22t-14 -22l-168 -179q-11 -11 -21 -11q-9 0 -14.5 6t-4.5 15 q2 10 9 17l157 173l-95 175q-6 11 -3 17q5 21 25 21z" />
<glyph unicode="&#xbf;" horiz-adv-x="534" d="M345 630q-10 2 -15.5 10t-3.5 17l4 22q3 20 23 20q2 0 4 -1q9 -2 14.5 -9.5t4.5 -17.5l-4 -22q-2 -9 -10 -14.5t-17 -4.5zM237 -1q-80 0 -132 52q-53 51 -53 130q0 12 4 38q15 83 80.5 142.5t149.5 67.5l19 111q3 20 23 20q3 0 4 -1q10 -1 15.5 -9t3.5 -18l-22 -125 q0 -1 -1 -2q-2 -21 -23 -21q-70 1 -130.5 -50.5t-72.5 -122.5q-3 -16 -3 -30q1 -59 38.5 -97t99.5 -39q47 0 91 23.5t74 63.5q6 8 15.5 9t17.5 -5q8 -5 9 -14.5t-5 -17.5q-36 -48 -89.5 -76.5t-112.5 -28.5z" />
<glyph unicode="&#xc0;" horiz-adv-x="790" d="M519 182h-321l-93 -169q-7 -13 -21 -13q-6 0 -12 3q-21 12 -10 33l360 651q6 13 22 13q22 0 25 -20l130 -651q2 -10 -3.5 -18.5t-15.5 -10.5h-5q-21 0 -24 20zM509 231l-75 377l-209 -377h284zM522 792q-18 0 -30 13l-69 77q-9 11 -8 18q1 8 16 15.5t29 7.5q16 0 25 -18 l49 -93q3 -5 2 -11q0 -9 -14 -9z" />
<glyph unicode="&#xc1;" horiz-adv-x="790" d="M519 182h-321l-93 -169q-7 -13 -21 -13q-6 0 -12 3q-21 12 -10 33l360 651q6 13 22 13q22 0 25 -20l130 -651q2 -10 -3.5 -18.5t-15.5 -10.5h-5q-21 0 -24 20zM509 231l-75 377l-209 -377h284zM420 792q-14 0 -14 9q-1 6 2 11l49 93q9 18 25 18q14 0 29 -7.5t16 -15.5 q1 -7 -8 -18l-69 -77q-12 -13 -30 -13z" />
<glyph unicode="&#xc2;" horiz-adv-x="646" d="M518 182h-321l-93 -169q-6 -13 -21 -13q-6 0 -12 3q-21 12 -10 33l360 651q6 13 22 13q22 0 25 -20l130 -651q2 -10 -3.5 -18.5t-15.5 -10.5h-5q-21 0 -24 20zM508 231l-75 377l-209 -377h284zM470 863l-70 -58q-17 -13 -34 -13q-12 0 -12 10q2 7 7 12l84 88q16 18 30 18 h8q13 0 26 -18l60 -88q4 -7 3 -12q0 -10 -15 -10q-19 0 -31 13z" />
<glyph unicode="&#xc3;" horiz-adv-x="790" d="M519 182h-321l-93 -169q-7 -13 -21 -13q-6 0 -12 3q-21 12 -10 33l360 651q6 13 22 13q22 0 25 -20l130 -651q2 -10 -3.5 -18.5t-15.5 -10.5h-5q-21 0 -24 20zM509 231l-75 377l-209 -377h284zM370 798q-9 -14 -20 -14q-8 0 -12.5 5t-3.5 12l4 12q19 42 40 58.5t49 16.5 q19 0 62 -20.5t60 -20.5q29 0 50 38q9 14 20 14q8 0 12.5 -5t3.5 -12q0 -6 -4 -12q-19 -42 -40 -58.5t-49 -16.5q-20 0 -63 20.5t-59 20.5q-29 0 -50 -38z" />
<glyph unicode="&#xc4;" horiz-adv-x="646" d="M518 182h-321l-93 -169q-6 -13 -21 -13q-6 0 -12 3q-21 12 -10 33l360 651q6 13 22 13q22 0 25 -20l130 -651q2 -10 -3.5 -18.5t-15.5 -10.5h-5q-21 0 -24 20zM508 231l-75 377l-209 -377h284zM349 837q3 18 17.5 30.5t32.5 12.5t28.5 -12.5t7.5 -30.5 q-4 -18 -18.5 -30.5t-32.5 -12.5t-28.5 12.5t-6.5 30.5zM514 837q3 18 17.5 30.5t32.5 12.5t28.5 -12.5t7.5 -30.5q-4 -18 -18.5 -30.5t-32.5 -12.5t-28.5 12.5t-6.5 30.5z" />
<glyph unicode="&#xc5;" horiz-adv-x="790" d="M626 33q2 -9 -3.5 -18.5t-15.5 -13.5q-2 0 -5 -0.5t-4 -0.5q-17 0 -20 16l-33 165h-319l-91 -165q-10 -16 -26 -16q-1 0 -4 0.5t-5 0.5q-8 4 -11 13.5t3 18.5l330 600q-40 26 -32 74l1 1q6 36 37.5 62t66.5 26q37 0 60 -26t17 -62l-1 -1q-4 -24 -21.5 -45t-42.5 -32z M433 707q-3 -21 10 -34q12 -12 28 -12q15 0 29 8q25 13 28 38l1 1q3 19 -8.5 34t-32.5 15q-19 0 -35 -15t-19 -34zM252 230h283l-74 376z" />
<glyph unicode="&#xc6;" horiz-adv-x="1045" d="M37 25q1 4 7 14l509 651q13 16 29 16h497q10 0 16 -7t4 -17q-1 -10 -9.5 -17t-18.5 -7h-411l-49 -275h366q10 0 16 -7t4 -17q-1 -10 -9.5 -17t-18.5 -7h-366l-50 -281h416q10 0 16 -7t4 -17q-1 -10 -9.5 -17t-18.5 -7h-442q-10 0 -17 7.5t-5 18.5l30 170h-300l-146 -188 q-10 -13 -24 -13q-10 0 -16 7t-4 17zM264 249h272l72 410h-26z" />
<glyph unicode="&#xc7;" horiz-adv-x="738" d="M675 108q-131 -105 -271 -109l-74 -110q-13 -20 -29 -20q-12 0 -22 8t-8 16t8 15l79 93q-135 12 -206 113.5t-46 244.5v2q27 150 145.5 256t268.5 106q81 0 136.5 -25t103.5 -73q8 -10 6 -21q-1 -10 -10.5 -18t-20.5 -8q-12 0 -17 7q-84 91 -207 91q-126 0 -226.5 -90.5 t-123.5 -222.5l-1 -2q-23 -133 46.5 -224t194.5 -91q126 0 245 97q10 8 19 8q10 0 16.5 -7.5t4.5 -17.5q-1 -10 -11 -18z" />
<glyph unicode="&#xc8;" horiz-adv-x="670" d="M126 -2q-23 5 -20 29l115 651q3 20 25 20h1h359q10 0 17 -7.5t7 -17.5t-7 -17t-17 -7h-340l-49 -277h290q10 0 17 -7t7 -17t-7 -17.5t-17 -7.5h-299l-49 -276h332q10 0 17 -7.5t7 -17.5t-7 -17t-17 -7h-359h-1h-1h-4zM491 792q-18 0 -30 13l-69 77q-9 11 -8 18 q1 8 16 15.5t29 7.5q16 0 25 -18l49 -93q3 -5 2 -11q0 -9 -14 -9z" />
<glyph unicode="&#xc9;" horiz-adv-x="670" d="M126 -2q-23 5 -20 29l115 651q3 20 25 20h1h359q10 0 17 -7.5t7 -17.5t-7 -17t-17 -7h-340l-49 -277h290q10 0 17 -7t7 -17t-7 -17.5t-17 -7.5h-299l-49 -276h332q10 0 17 -7.5t7 -17.5t-7 -17t-17 -7h-359h-1h-1h-4zM432 792q-14 0 -14 9q-1 6 2 11l49 93q9 18 25 18 q14 0 29 -7.5t16 -15.5q1 -7 -8 -18l-69 -77q-12 -13 -30 -13z" />
<glyph unicode="&#xca;" horiz-adv-x="593" d="M126 -2q-23 5 -20 29l115 651q3 20 25 20h1h359q10 0 17 -7.5t7 -17.5t-7 -17t-17 -7h-340l-49 -277h290q10 0 17 -7t7 -17t-7 -17.5t-17 -7.5h-299l-49 -276h332q10 0 17 -7.5t7 -17.5t-7 -17t-17 -7h-359h-1h-1h-4zM461 863l-70 -58q-17 -13 -34 -13q-12 0 -12 10 q2 7 7 12l84 88q16 18 30 18h8q13 0 26 -18l60 -88q4 -7 3 -12q0 -10 -15 -10q-19 0 -31 13z" />
<glyph unicode="&#xcb;" horiz-adv-x="593" d="M126 -2q-23 5 -20 29l115 651q3 20 25 20h1h359q10 0 17 -7.5t7 -17.5t-7 -17t-17 -7h-340l-49 -277h290q10 0 17 -7t7 -17t-7 -17.5t-17 -7.5h-299l-49 -276h332q10 0 17 -7.5t7 -17.5t-7 -17t-17 -7h-359h-1h-1h-4zM340 837q3 18 17.5 30.5t32.5 12.5t28.5 -12.5 t7.5 -30.5q-4 -18 -18.5 -30.5t-32.5 -12.5t-28.5 12.5t-6.5 30.5zM505 837q3 18 17.5 30.5t32.5 12.5t28.5 -12.5t7.5 -30.5q-4 -18 -18.5 -30.5t-32.5 -12.5t-28.5 12.5t-6.5 30.5z" />
<glyph unicode="&#xcc;" horiz-adv-x="274" d="M41 -2h-4q-10 1 -16 9.5t-4 18.5l115 651q1 10 9.5 16t18.5 4q10 -1 16 -9.5t4 -18.5l-115 -651q-3 -20 -24 -20zM202 792q-18 0 -30 13l-69 77q-9 11 -8 18q1 8 16 15.5t29 7.5q16 0 25 -18l49 -93q3 -5 2 -11q0 -9 -14 -9z" />
<glyph unicode="&#xcd;" horiz-adv-x="274" d="M137 -2h-4q-10 1 -16 9.5t-4 18.5l115 651q1 10 9.5 16t18.5 4q10 -1 16 -9.5t4 -18.5l-115 -651q-3 -20 -24 -20zM221 792q-14 0 -14 9q-1 6 2 11l49 93q9 18 25 18q14 0 29 -7.5t16 -15.5q1 -7 -8 -18l-69 -77q-12 -13 -30 -13z" />
<glyph unicode="&#xce;" horiz-adv-x="274" d="M54 -2h-4q-10 1 -16 9.5t-4 18.5l115 651q1 10 9.5 16t18.5 4q10 -1 16 -9.5t4 -18.5l-115 -651q-3 -20 -24 -20zM195 863l-70 -58q-17 -13 -34 -13q-12 0 -12 10q2 7 7 12l84 88q16 18 30 18h8q13 0 26 -18l60 -88q4 -7 3 -12q0 -10 -15 -10q-19 0 -31 13z" />
<glyph unicode="&#xcf;" horiz-adv-x="274" d="M46 -2h-4q-10 1 -16 9.5t-4 18.5l115 651q1 10 9.5 16t18.5 4q10 -1 16 -9.5t4 -18.5l-115 -651q-3 -20 -24 -20z" />
<glyph unicode="&#xd0;" horiz-adv-x="812" d="M72 331q-18 0 -15 20q3 18 22 18h84l54 308q2 10 10.5 17t18.5 7h131q145 0 229.5 -103t58.5 -248q-17 -95 -78 -175.5t-150 -127t-184 -46.5h-133q-21 2 -18 24l54 306h-84zM262 50q125 0 228.5 88t125.5 212q22 125 -50.5 213t-197.5 89h-106l-50 -283h80q8 0 12.5 -5 t3.5 -13q-1 -9 -8 -14.5t-15 -5.5h-80l-49 -281h106z" />
<glyph unicode="&#xd1;" horiz-adv-x="790" d="M106 30l114 648l1 1q0 11 12 20q22 11 33 -10l322 -591l102 580q1 10 9.5 16t18.5 4q23 -5 20 -29l-114 -647q-1 -9 -8.5 -14.5t-15.5 -5.5h-4q-11 1 -18 12q0 2 -2 4l-319 586l-103 -582q-3 -20 -24 -20h-4q-10 1 -16 9.5t-4 18.5zM424 798q-9 -14 -20 -14q-8 0 -12.5 5 t-3.5 12l4 12q19 42 40 58.5t49 16.5q19 0 62 -20.5t60 -20.5q29 0 50 38q9 14 20 14q8 0 12.5 -5t3.5 -12q0 -6 -4 -12q-19 -42 -40 -58.5t-49 -16.5q-20 0 -63 20.5t-59 20.5q-29 0 -50 -38z" />
<glyph unicode="&#xd2;" horiz-adv-x="850" d="M467 700q122 0 201 -84q78 -83 78 -206q0 -32 -6 -65l-24 5l24 -5q-26 -144 -138.5 -244.5t-249.5 -100.5q-123 0 -201 83q-78 81 -78 206q0 32 6 65q26 144 138 244.5t250 101.5zM692 354q5 32 5 56q-1 105 -65 172.5t-165 68.5h-2q-116 0 -216 -90t-122 -216 q-5 -32 -5 -56q1 -105 65 -172.5t165 -68.5q117 0 217.5 90t122.5 216zM596 792q-18 0 -30 13l-69 77q-9 11 -8 18q1 8 16 15.5t29 7.5q16 0 25 -18l49 -93q3 -5 2 -11q0 -9 -14 -9z" />
<glyph unicode="&#xd3;" horiz-adv-x="850" d="M467 700q122 0 201 -84q78 -83 78 -206q0 -32 -6 -65l-24 5l24 -5q-26 -144 -138.5 -244.5t-249.5 -100.5q-123 0 -201 83q-78 81 -78 206q0 32 6 65q26 144 138 244.5t250 101.5zM692 354q5 32 5 56q-1 105 -65 172.5t-165 68.5h-2q-116 0 -216 -90t-122 -216 q-5 -32 -5 -56q1 -105 65 -172.5t165 -68.5q117 0 217.5 90t122.5 216zM465 792q-14 0 -14 9q-1 6 2 11l49 93q9 18 25 18q14 0 29 -7.5t16 -15.5q1 -7 -8 -18l-69 -77q-12 -13 -30 -13z" />
<glyph unicode="&#xd4;" horiz-adv-x="850" d="M467 700q122 0 201 -84q78 -83 78 -206q0 -32 -6 -65l-24 5l24 -5q-26 -144 -138.5 -244.5t-249.5 -100.5q-123 0 -201 83q-78 81 -78 206q0 32 6 65q26 144 138 244.5t250 101.5zM692 354q5 32 5 56q-1 105 -65 172.5t-165 68.5h-2q-116 0 -216 -90t-122 -216 q-5 -32 -5 -56q1 -105 65 -172.5t165 -68.5q117 0 217.5 90t122.5 216zM533 863l-70 -58q-17 -13 -34 -13q-12 0 -12 10q2 7 7 12l84 88q16 18 30 18h8q13 0 26 -18l60 -88q4 -7 3 -12q0 -10 -15 -10q-19 0 -31 13z" />
<glyph unicode="&#xd5;" horiz-adv-x="850" d="M467 700q122 0 201 -84q78 -83 78 -206q0 -32 -6 -65l-24 5l24 -5q-26 -144 -138.5 -244.5t-249.5 -100.5q-123 0 -201 83q-78 81 -78 206q0 32 6 65q26 144 138 244.5t250 101.5zM692 354q5 32 5 56q-1 105 -65 172.5t-165 68.5h-2q-116 0 -216 -90t-122 -216 q-5 -32 -5 -56q1 -105 65 -172.5t165 -68.5q117 0 217.5 90t122.5 216zM423 798q-9 -14 -20 -14q-8 0 -12.5 5t-3.5 12l4 12q19 42 40 58.5t49 16.5q20 0 63 -20.5t59 -20.5q29 0 50 38q9 14 20 14q8 0 12.5 -5t3.5 -12q0 -6 -4 -12q-19 -42 -40 -58.5t-49 -16.5 q-19 0 -62 20.5t-60 20.5q-29 0 -50 -38z" />
<glyph unicode="&#xd6;" horiz-adv-x="850" d="M467 700q122 0 201 -84q78 -83 78 -206q0 -32 -6 -65l-24 5l24 -5q-26 -144 -138.5 -244.5t-249.5 -100.5q-123 0 -201 83q-78 81 -78 206q0 32 6 65q26 144 138 244.5t250 101.5zM692 354q5 32 5 56q-1 105 -65 172.5t-165 68.5h-2q-116 0 -216 -90t-122 -216 q-5 -32 -5 -56q1 -105 65 -172.5t165 -68.5q117 0 217.5 90t122.5 216zM451 837q3 18 17.5 30.5t32.5 12.5t28.5 -12.5t7.5 -30.5q-4 -18 -18.5 -30.5t-32.5 -12.5t-28.5 12.5t-6.5 30.5zM616 837q3 18 17.5 30.5t32.5 12.5t28.5 -12.5t7.5 -30.5q-4 -18 -18.5 -30.5 t-32.5 -12.5t-28.5 12.5t-6.5 30.5z" />
<glyph unicode="&#xd7;" horiz-adv-x="620" d="M577 520l-199 -167l139 -166q8 -10 5 -20q-1 -10 -9.5 -17.5t-19.5 -7.5t-18 9l-137 168l-197 -169q-10 -8 -19 -8q-10 0 -16 7t-4 17q1 10 11 18l199 167l-139 166q-8 10 -5 20q1 10 9.5 17.5t19.5 7.5t18 -9l137 -168l197 169q8 8 19 8q10 0 16 -7t4 -17q-1 -8 -11 -18 z" />
<glyph unicode="&#xd8;" horiz-adv-x="850" d="M405 -3q-133 0 -213 82l-80 -71q-10 -8 -19 -8t-14 6t-4 15q2 10 9 16l81 73q-73 105 -47 247v2q26 148 144 255t273 107q132 0 213 -83l80 72q10 8 19 8t14 -6t4 -15q-3 -11 -9 -16l-82 -74q74 -103 48 -246v-2q-26 -148 -144 -255t-273 -107zM172 359q-21 -122 37 -210 l498 450q-70 75 -183 75q-128 0 -228 -90.5t-124 -222.5v-2zM415 44q128 0 228.5 91t124.5 222v2q21 119 -37 209l-499 -449q69 -75 183 -75z" />
<glyph unicode="&#xd9;" horiz-adv-x="760" d="M712 701q23 -5 20 -29l-70 -392q-21 -116 -116 -197t-211 -82h-1q-103 0 -173 68q-68 68 -68 170q0 21 5 49l69 393q1 10 9.5 16t18.5 4q23 -5 20 -29l-69 -392q-4 -19 -4 -41q1 -82 54 -135t139 -54q97 -1 180 70t99 168l70 393q1 10 9.5 16t18.5 4zM523 792 q-18 0 -30 13l-69 77q-9 11 -8 18q1 8 16 15.5t29 7.5q16 0 25 -18l49 -93q3 -5 2 -11q0 -9 -14 -9z" />
<glyph unicode="&#xda;" horiz-adv-x="760" d="M712 701q23 -5 20 -29l-70 -392q-21 -116 -116 -197t-211 -82h-1q-103 0 -173 68q-68 68 -68 170q0 21 5 49l69 393q1 10 9.5 16t18.5 4q23 -5 20 -29l-69 -392q-4 -19 -4 -41q1 -82 54 -135t139 -54q97 -1 180 70t99 168l70 393q1 10 9.5 16t18.5 4zM451 792 q-14 0 -14 9q-1 6 2 11l49 93q9 18 25 18q14 0 29 -7.5t16 -15.5q1 -7 -8 -18l-69 -77q-12 -13 -30 -13z" />
<glyph unicode="&#xdb;" horiz-adv-x="760" d="M712 701q23 -5 20 -29l-70 -392q-21 -116 -116 -197t-211 -82h-1q-103 0 -173 68q-68 68 -68 170q0 21 5 49l69 393q1 10 9.5 16t18.5 4q23 -5 20 -29l-69 -392q-4 -19 -4 -41q1 -82 54 -135t139 -54q97 -1 180 70t99 168l70 393q1 10 9.5 16t18.5 4zM500 863l-70 -58 q-17 -13 -34 -13q-12 0 -12 10q2 7 7 12l84 88q16 18 30 18h8q13 0 26 -18l60 -88q4 -7 3 -12q0 -10 -15 -10q-19 0 -31 13z" />
<glyph unicode="&#xdc;" horiz-adv-x="814" d="M724 701q23 -5 20 -29l-70 -392q-21 -116 -116 -197t-211 -82h-1q-103 0 -173 68q-68 68 -68 170q0 21 5 49l69 393q1 10 9.5 16t18.5 4q23 -5 20 -29l-69 -392q-4 -19 -4 -41q1 -82 54 -135t139 -54q97 -1 180 70t99 168l70 393q1 10 9.5 16t18.5 4zM377 837 q3 18 17.5 30.5t32.5 12.5t28.5 -12.5t7.5 -30.5q-4 -18 -18.5 -30.5t-32.5 -12.5t-28.5 12.5t-6.5 30.5zM542 837q3 18 17.5 30.5t32.5 12.5t28.5 -12.5t7.5 -30.5q-4 -18 -18.5 -30.5t-32.5 -12.5t-28.5 12.5t-6.5 30.5z" />
<glyph unicode="&#xdd;" horiz-adv-x="716" d="M581 658l-294 -324l-55 -315q-1 -9 -8.5 -14.5t-15.5 -5.5h-5q-10 1 -16 9.5t-4 18.5l56 314l-178 321q-5 9 -2 18.5t11 14.5q9 5 19 2.5t15 -11.5l165 -299l275 303q7 8 17 8.5t18 -6.5q18 -16 2 -34zM364 792q-14 0 -14 9q-1 6 2 11l49 93q9 18 25 18q14 0 29 -7.5 t16 -15.5q1 -7 -8 -18l-69 -77q-12 -13 -30 -13z" />
<glyph unicode="&#xe0;" horiz-adv-x="574" d="M258 0q-85 0 -141 59q-54 57 -54 144q0 25 4 45q18 100 95.5 169.5t173.5 70.5q85 0 141 -59q18 -20 29 -40l14 79q2 10 9.5 15.5t17.5 4.5q10 -2 15.5 -10t4.5 -18l-78 -440q-3 -20 -24 -20h-4q-10 2 -15.5 10t-3.5 18l11 64q-81 -90 -195 -92zM114 240q-4 -17 -4 -37 q1 -68 42 -111t106 -44q76 -1 142.5 58t80.5 142q3 20 3 37q-1 68 -41.5 111t-106.5 44h-1q-76 0 -141.5 -59t-79.5 -141zM473 592q-18 0 -30 13l-69 77q-9 11 -8 18q1 8 16 15.5t29 7.5q16 0 25 -18l49 -93q3 -5 2 -11q0 -9 -14 -9z" />
<glyph unicode="&#xe1;" horiz-adv-x="574" d="M258 0q-85 0 -141 59q-54 57 -54 144q0 25 4 45q18 100 95.5 169.5t173.5 70.5q85 0 141 -59q18 -20 29 -40l14 79q2 10 9.5 15.5t17.5 4.5q10 -2 15.5 -10t4.5 -18l-78 -440q-3 -20 -24 -20h-4q-10 2 -15.5 10t-3.5 18l11 64q-81 -90 -195 -92zM114 240q-4 -17 -4 -37 q1 -68 42 -111t106 -44q76 -1 142.5 58t80.5 142q3 20 3 37q-1 68 -41.5 111t-106.5 44h-1q-76 0 -141.5 -59t-79.5 -141zM301 592q-14 0 -14 9q-1 6 2 11l49 93q9 18 25 18q14 0 29 -7.5t16 -15.5q1 -7 -8 -18l-69 -77q-12 -13 -30 -13z" />
<glyph unicode="&#xe2;" horiz-adv-x="574" d="M258 0q-85 0 -141 59q-54 57 -54 144q0 25 4 45q18 100 95.5 169.5t173.5 70.5q85 0 141 -59q18 -20 29 -40l14 79q2 10 9.5 15.5t17.5 4.5q10 -2 15.5 -10t4.5 -18l-78 -440q-3 -20 -24 -20h-4q-10 2 -15.5 10t-3.5 18l11 64q-81 -90 -195 -92zM114 240q-4 -17 -4 -37 q1 -68 42 -111t106 -44q76 -1 142.5 58t80.5 142q3 20 3 37q-1 68 -41.5 111t-106.5 44h-1q-76 0 -141.5 -59t-79.5 -141zM414 663l-70 -58q-17 -13 -34 -13q-12 0 -12 10q2 7 7 12l84 88q16 18 30 18h8q13 0 26 -18l60 -88q4 -7 3 -12q0 -10 -15 -10q-19 0 -31 13z" />
<glyph unicode="&#xe3;" horiz-adv-x="574" d="M258 0q-85 0 -141 59q-54 57 -54 144q0 25 4 45q18 100 95.5 169.5t173.5 70.5q85 0 141 -59q18 -20 29 -40l14 79q2 10 9.5 15.5t17.5 4.5q10 -2 15.5 -10t4.5 -18l-78 -440q-3 -20 -24 -20h-4q-10 2 -15.5 10t-3.5 18l11 64q-81 -90 -195 -92zM114 240q-4 -17 -4 -37 q1 -68 42 -111t106 -44q76 -1 142.5 58t80.5 142q3 20 3 37q-1 68 -41.5 111t-106.5 44h-1q-76 0 -141.5 -59t-79.5 -141zM304 598q-9 -14 -20 -14q-8 0 -12.5 5t-3.5 12l4 12q19 42 40 58.5t49 16.5q19 0 62 -20.5t60 -20.5q29 0 50 38q9 14 20 14q8 0 12.5 -5t3.5 -12 q0 -6 -4 -12q-19 -42 -40 -58.5t-49 -16.5q-20 0 -63 20.5t-59 20.5q-29 0 -50 -38z" />
<glyph unicode="&#xe4;" horiz-adv-x="619" d="M235 0q-85 0 -141 59q-54 57 -54 144q0 25 4 45q18 100 95.5 169.5t173.5 70.5q85 0 141 -59q18 -20 29 -40l14 79q2 10 9.5 15.5t17.5 4.5q10 -2 15.5 -10t4.5 -18l-78 -440q-3 -20 -24 -20h-4q-10 2 -15.5 10t-3.5 18l11 64q-81 -90 -195 -92zM91 240q-4 -17 -4 -37 q1 -68 42 -111t106 -44q76 -1 142.5 58t80.5 142q3 20 3 37q-1 68 -41.5 111t-106.5 44h-1q-76 0 -141.5 -59t-79.5 -141zM278 637q3 18 17.5 30.5t32.5 12.5t28.5 -12.5t7.5 -30.5q-4 -18 -18.5 -30.5t-32.5 -12.5t-28.5 12.5t-6.5 30.5zM443 637q3 18 17.5 30.5t32.5 12.5 t28.5 -12.5t7.5 -30.5q-4 -18 -18.5 -30.5t-32.5 -12.5t-28.5 12.5t-6.5 30.5z" />
<glyph unicode="&#xe5;" horiz-adv-x="574" d="M512 490q10 0 16 -7t4 -17l-78 -442q-1 -10 -9.5 -17t-18.5 -7t-16 7t-4 17l13 73q-40 -45 -93 -71t-108 -26q-96 0 -151 72t-38 173q18 101 98.5 173t176.5 72q55 0 99.5 -26t68.5 -70l12 72q5 24 28 24zM227 48q76 0 140 57.5t78 139.5q15 82 -29 140t-120 58 q-75 0 -139.5 -58t-79.5 -140q-14 -82 30.5 -139.5t119.5 -57.5zM317 560q-35 0 -57.5 26.5t-16.5 60.5v1q7 36 38.5 62t66.5 26q37 0 60 -26t16 -62v-1q-6 -35 -38 -61t-69 -26zM324 601q21 0 37.5 14t19.5 32v1q4 19 -7.5 34t-32.5 15q-18 0 -34.5 -15t-20.5 -34v-1 q-3 -18 8.5 -32t29.5 -14z" />
<glyph unicode="&#xe6;" horiz-adv-x="954" d="M247 0q-86 0 -142 59q-54 57 -54 145q0 25 4 45q18 100 96 170t174 71q86 0 142 -59q18 -20 29 -40l14 79q2 10 9.5 15.5t17.5 4.5q10 -2 15.5 -10t4.5 -18l-14 -77q87 104 213 106q88 0 145 -59t57 -146q0 -8 -2 -26q0 -1 -0.5 -3t-0.5 -3q-5 -18 -23 -18h-406 q-2 -10 -2 -30q0 -69 42.5 -112.5t111.5 -44.5q49 0 96.5 24.5t80.5 66.5q7 8 16.5 9t17.5 -6q8 -6 9 -15.5t-6 -17.5q-40 -50 -96.5 -79.5t-117.5 -29.5h-1q-88 0 -145 59q-24 24 -37 53l-16 -93q-3 -20 -24 -20h-4q-10 2 -15.5 10t-3.5 18l11 64q-82 -90 -196 -92z M102 241q-4 -17 -4 -37q1 -68 42 -111.5t107 -44.5q76 -1 143 58.5t81 142.5q3 19 3 37q-1 69 -42 112t-107 44h-1q-76 0 -142 -59.5t-80 -141.5zM756 443q-68 1 -129.5 -44.5t-87.5 -114.5h371v2q-1 69 -43 112.5t-111 44.5z" />
<glyph unicode="&#xe7;" horiz-adv-x="571" d="M507 91q-96 -83 -201 -88l-73 -110q-13 -20 -30 -20q-12 0 -21.5 8t-7.5 16q0 5 7 15l80 93q-95 13 -146 88.5t-34 174.5v2q20 109 109.5 188t197.5 79q106 0 178 -81q6 -6 4 -18q-1 -10 -9.5 -17.5t-19.5 -7.5t-16 6q-63 72 -146 72q-87 0 -157.5 -63.5t-86.5 -155.5 l-1 -2q-16 -92 33.5 -156.5t137.5 -64.5t173 73q10 8 18 8q9 0 15 -7.5t4 -16.5q0 -9 -8 -15z" />
<glyph unicode="&#xe8;" horiz-adv-x="584" d="M61 205q0 24 4 45q18 100 97.5 169.5t178.5 70.5q87 0 144 -59t57 -145q0 -8 -2 -26q0 -1 -0.5 -3t-0.5 -3q-6 -19 -23 -19h-405q-2 -10 -2 -30q0 -68 42.5 -111.5t110.5 -44.5q50 0 97 24.5t80 65.5q7 8 16.5 9t17.5 -6q18 -15 3 -32q-39 -50 -95.5 -79.5t-118.5 -29.5 h-1q-87 0 -144 59q-56 58 -56 145zM341 442q-68 1 -129.5 -44.5t-87.5 -113.5h370v2q-1 68 -43 111.5t-110 44.5zM442 592q-18 0 -30 13l-69 77q-9 11 -8 18q1 8 16 15.5t29 7.5q16 0 25 -18l49 -93q3 -5 2 -11q0 -9 -14 -9z" />
<glyph unicode="&#xe9;" horiz-adv-x="584" d="M61 205q0 24 4 45q18 100 97.5 169.5t178.5 70.5q87 0 144 -59t57 -145q0 -8 -2 -26q0 -1 -0.5 -3t-0.5 -3q-6 -19 -23 -19h-405q-2 -10 -2 -30q0 -68 42.5 -111.5t110.5 -44.5q50 0 97 24.5t80 65.5q7 8 16.5 9t17.5 -6q18 -15 3 -32q-39 -50 -95.5 -79.5t-118.5 -29.5 h-1q-87 0 -144 59q-56 58 -56 145zM341 442q-68 1 -129.5 -44.5t-87.5 -113.5h370v2q-1 68 -43 111.5t-110 44.5zM292 592q-14 0 -14 9q-1 6 2 11l49 93q9 18 25 18q14 0 29 -7.5t16 -15.5q1 -7 -8 -18l-69 -77q-12 -13 -30 -13z" />
<glyph unicode="&#xea;" horiz-adv-x="584" d="M61 205q0 24 4 45q18 100 97.5 169.5t178.5 70.5q87 0 144 -59t57 -145q0 -8 -2 -26q0 -1 -0.5 -3t-0.5 -3q-6 -19 -23 -19h-405q-2 -10 -2 -30q0 -68 42.5 -111.5t110.5 -44.5q50 0 97 24.5t80 65.5q7 8 16.5 9t17.5 -6q18 -15 3 -32q-39 -50 -95.5 -79.5t-118.5 -29.5 h-1q-87 0 -144 59q-56 58 -56 145zM341 442q-68 1 -129.5 -44.5t-87.5 -113.5h370v2q-1 68 -43 111.5t-110 44.5zM395 663l-70 -58q-17 -13 -34 -13q-12 0 -12 10q2 7 7 12l84 88q16 18 30 18h8q13 0 26 -18l60 -88q4 -7 3 -12q0 -10 -15 -10q-19 0 -31 13z" />
<glyph unicode="&#xeb;" horiz-adv-x="609" d="M58 205q0 24 4 45q18 100 97.5 169.5t178.5 70.5q87 0 144 -59t57 -145q0 -8 -2 -26q0 -1 -0.5 -3t-0.5 -3q-6 -19 -23 -19h-405q-2 -10 -2 -30q0 -68 42.5 -111.5t110.5 -44.5q50 0 97 24.5t80 65.5q7 8 16.5 9t17.5 -6q18 -15 3 -32q-39 -50 -95.5 -79.5t-118.5 -29.5 h-1q-87 0 -144 59q-56 58 -56 145zM338 442q-68 1 -129.5 -44.5t-87.5 -113.5h370v2q-1 68 -43 111.5t-110 44.5zM271 637q3 18 17.5 30.5t32.5 12.5t28.5 -12.5t7.5 -30.5q-4 -18 -18.5 -30.5t-32.5 -12.5t-28.5 12.5t-6.5 30.5zM436 637q3 18 17.5 30.5t32.5 12.5 t28.5 -12.5t7.5 -30.5q-4 -18 -18.5 -30.5t-32.5 -12.5t-28.5 12.5t-6.5 30.5z" />
<glyph unicode="&#xec;" horiz-adv-x="249" d="M24 0q-10 1 -15.5 9.5t-3.5 17.5l77 442q1 10 9.5 15.5t18.5 4.5q24 -6 19 -29l-78 -441q-3 -19 -23 -19h-4zM169 592q-18 0 -30 13l-69 77q-9 11 -8 18q1 8 16 15.5t29 7.5q16 0 25 -18l49 -93q3 -5 2 -11q0 -9 -14 -9z" />
<glyph unicode="&#xed;" horiz-adv-x="249" d="M122 0q-10 1 -15.5 9.5t-3.5 17.5l77 442q1 10 9.5 15.5t18.5 4.5q24 -6 19 -29l-78 -441q-3 -19 -23 -19h-4zM191 592q-14 0 -14 9q-1 6 2 11l49 93q9 18 25 18q14 0 29 -7.5t16 -15.5q1 -7 -8 -18l-69 -77q-12 -13 -30 -13z" />
<glyph unicode="&#xee;" horiz-adv-x="249" d="M37 0q-10 1 -15.5 9.5t-3.5 17.5l77 442q1 10 9.5 15.5t18.5 4.5q24 -6 19 -29l-78 -441q-3 -19 -23 -19h-4zM144 663l-70 -58q-17 -13 -34 -13q-12 0 -12 10q2 7 7 12l84 88q16 18 30 18h8q13 0 26 -18l60 -88q4 -7 3 -12q0 -10 -15 -10q-19 0 -31 13z" />
<glyph unicode="&#xef;" horiz-adv-x="281" d="M116 0q-10 1 -15.5 9.5t-3.5 17.5l77 443q1 10 9.5 15.5t18.5 4.5q24 -6 19 -29l-78 -442q-3 -19 -23 -19h-4zM98 637q3 18 17.5 30.5t32.5 12.5t28.5 -12.5t7.5 -30.5q-4 -18 -18.5 -30.5t-32.5 -12.5t-28.5 12.5t-6.5 30.5zM263 637q3 18 17.5 30.5t32.5 12.5 t28.5 -12.5t7.5 -30.5q-4 -18 -18.5 -30.5t-32.5 -12.5t-28.5 12.5t-6.5 30.5z" />
<glyph unicode="&#xf0;" horiz-adv-x="628" d="M531 433l-111 208l-133 -62q-6 -3 -12 -3q-9 0 -14.5 7t-3.5 16q3 13 18 20l127 57l-14 26q-4 9 -3 18q6 24 30 24q13 0 20 -13l16 -32l93 44q8 3 13 3q9 0 14.5 -7t3.5 -16q-3 -13 -18 -20l-88 -40l80 -161q32 -65 44 -120.5t0 -123.5q-19 -107 -105 -183.5t-200 -76.5 q-106 0 -165 75.5t-41 180.5q19 106 102 174t181 68q96 0 166 -63zM539 253q14 82 -36.5 140.5t-139.5 58.5q-87 0 -150 -57t-78 -144q-15 -83 32.5 -145t133.5 -62q88 0 155.5 61.5t82.5 147.5z" />
<glyph unicode="&#xf1;" d="M445 28l46 264q2 20 2 27q-1 53 -34 86.5t-89 34.5q-62 1 -116.5 -45.5t-65.5 -109.5l-46 -266q0 -1 -0.5 -2t-0.5 -2l-1 -1v-1q0 -1 -1 -2l-1 -1l-1 -1q-1 -1 -1 -2q-1 0 -1 -1l-2 -2q-1 0 -1 -1q-2 0 -3 -1q-1 0 -1 -1h-3q-1 -1 -2 -1h-2h-2h-3h-2q-10 1 -15.5 9.5 t-3.5 18.5l47 264v1l30 175q2 10 10 15.5t18 3.5q10 -1 16 -9t4 -18l-7 -39q69 65 157 67q76 0 123 -49q48 -48 48 -120q0 -17 -3 -35l-47 -265q-3 -19 -24 -19h-3q-10 2 -15.5 10t-3.5 18zM306 598q-9 -14 -20 -14q-8 0 -12.5 5t-3.5 12l4 12q19 42 40 58.5t49 16.5 q19 0 62 -20.5t60 -20.5q29 0 50 38q9 14 20 14q8 0 12.5 -5t3.5 -12q0 -6 -4 -12q-19 -42 -40 -58.5t-49 -16.5q-20 0 -63 20.5t-59 20.5q-29 0 -50 -38z" />
<glyph unicode="&#xf2;" horiz-adv-x="640" d="M529 286q0 -25 -4 -46l-23 5l23 -5q-18 -100 -96 -170t-174 -70h-1q-85 0 -141 59q-55 58 -55 145q0 24 4 45q18 100 96.5 170t174.5 71q85 0 142 -60q54 -56 54 -144zM478 249q4 24 4 37q-1 68 -42 111.5t-107 44.5h-2q-76 0 -142 -59.5t-80 -142.5q-3 -18 -3 -36 q1 -69 42 -112.5t107 -44.5q76 -1 142.5 59t80.5 143zM511 592q-18 0 -30 13l-69 77q-9 11 -8 18q1 8 16 15.5t29 7.5q16 0 25 -18l49 -93q3 -5 2 -11q0 -9 -14 -9z" />
<glyph unicode="&#xf3;" horiz-adv-x="640" d="M529 286q0 -25 -4 -46l-23 5l23 -5q-18 -100 -96 -170t-174 -70h-1q-85 0 -141 59q-55 58 -55 145q0 24 4 45q18 100 96.5 170t174.5 71q85 0 142 -60q54 -56 54 -144zM478 249q4 24 4 37q-1 68 -42 111.5t-107 44.5h-2q-76 0 -142 -59.5t-80 -142.5q-3 -18 -3 -36 q1 -69 42 -112.5t107 -44.5q76 -1 142.5 59t80.5 143zM278 592q-14 0 -14 9q-1 6 2 11l49 93q9 18 25 18q14 0 29 -7.5t16 -15.5q1 -7 -8 -18l-69 -77q-12 -13 -30 -13z" />
<glyph unicode="&#xf4;" horiz-adv-x="640" d="M529 286q0 -25 -4 -46l-23 5l23 -5q-18 -100 -96 -170t-174 -70h-1q-85 0 -141 59q-55 58 -55 145q0 24 4 45q18 100 96.5 170t174.5 71q85 0 142 -60q54 -56 54 -144zM478 249q4 24 4 37q-1 68 -42 111.5t-107 44.5h-2q-76 0 -142 -59.5t-80 -142.5q-3 -18 -3 -36 q1 -69 42 -112.5t107 -44.5q76 -1 142.5 59t80.5 143zM409 663l-70 -58q-17 -13 -34 -13q-12 0 -12 10q2 7 7 12l84 88q16 18 30 18h8q13 0 26 -18l60 -88q4 -7 3 -12q0 -10 -15 -10q-19 0 -31 13z" />
<glyph unicode="&#xf5;" horiz-adv-x="640" d="M529 286q0 -25 -4 -46l-23 5l23 -5q-18 -100 -96 -170t-174 -70h-1q-85 0 -141 59q-55 58 -55 145q0 24 4 45q18 100 96.5 170t174.5 71q85 0 142 -60q54 -56 54 -144zM478 249q4 24 4 37q-1 68 -42 111.5t-107 44.5h-2q-76 0 -142 -59.5t-80 -142.5q-3 -18 -3 -36 q1 -69 42 -112.5t107 -44.5q76 -1 142.5 59t80.5 143zM257 598q-9 -14 -20 -14q-8 0 -12.5 5t-3.5 12l4 12q19 42 40 58.5t49 16.5q20 0 63 -20.5t59 -20.5q29 0 50 38q9 14 20 14q8 0 12.5 -5t3.5 -12q0 -6 -4 -12q-19 -42 -40 -58.5t-49 -16.5q-19 0 -62 20.5t-60 20.5 q-29 0 -50 -38z" />
<glyph unicode="&#xf6;" horiz-adv-x="625" d="M541 286q0 -25 -4 -46l-23 5l23 -5q-18 -100 -96 -170t-174 -70h-1q-85 0 -141 59q-55 58 -55 145q0 24 4 45q18 100 96.5 170t174.5 71q85 0 142 -60q54 -56 54 -144zM490 249q4 24 4 37q-1 68 -42 111.5t-107 44.5h-2q-76 0 -142 -59.5t-80 -142.5q-3 -18 -3 -36 q1 -69 42 -112.5t107 -44.5q76 -1 142.5 59t80.5 143zM281 637q3 18 17.5 30.5t32.5 12.5t28.5 -12.5t7.5 -30.5q-4 -18 -18.5 -30.5t-32.5 -12.5t-28.5 12.5t-6.5 30.5zM446 637q3 18 17.5 30.5t32.5 12.5t28.5 -12.5t7.5 -30.5q-4 -18 -18.5 -30.5t-32.5 -12.5t-28.5 12.5 t-6.5 30.5z" />
<glyph unicode="&#xf7;" horiz-adv-x="620" d="M84 244h444q21 0 32 24q2 10 -3.5 17t-15.5 7h-444q-10 0 -18.5 -7t-10.5 -17q-3 -10 1.5 -17t14.5 -7zM383 509q17 0 25.5 -12t3.5 -28l-5 -17q-4 -16 -19.5 -28t-32.5 -12q-16 0 -24.5 11.5t-3.5 28.5l5 17q5 17 20 28.5t31 11.5zM270 124q16 0 24.5 -11.5t3.5 -28.5 l-5 -17q-5 -17 -20 -28.5t-31 -11.5q-17 0 -25.5 12t-3.5 28l5 17q4 16 19.5 28t32.5 12z" />
<glyph unicode="&#xf8;" horiz-adv-x="640" d="M309 1q-95 0 -157 60l-56 -49q-10 -8 -20 -8q-19 0 -16 19q2 9 8 15l60 52q-51 76 -33 176v2q19 109 108.5 188t201.5 79q97 0 156 -61l57 52q10 8 20 8q19 0 17 -19q-2 -9 -9 -15l-61 -54q52 -74 34 -176v-2q-19 -109 -108.5 -188t-201.5 -79zM319 47q89 0 159.5 64 t87.5 155v2q13 81 -23 141l-352 -310q49 -52 128 -52zM148 268q-15 -80 22 -141l353 309q-51 53 -128 53q-90 0 -160.5 -64t-86.5 -155v-2z" />
<glyph unicode="&#xf9;" d="M509 488q10 -2 15.5 -10t3.5 -18l-46 -265q-15 -82 -81 -137.5t-148 -56.5q-73 0 -122 49q-48 48 -48 119q0 17 3 35l47 264q2 10 10 15.5t18 4.5q9 -2 14.5 -10t3.5 -18l-46 -265q-2 -18 -2 -26q1 -53 34 -86t88 -34q63 -1 117.5 45.5t64.5 109.5l47 264q2 10 9.5 15.5 t17.5 4.5zM410 592q-18 0 -30 13l-69 77q-9 11 -8 18q1 8 16 15.5t29 7.5q16 0 25 -18l49 -93q3 -5 2 -11q0 -9 -14 -9z" />
<glyph unicode="&#xfa;" d="M509 488q10 -2 15.5 -10t3.5 -18l-46 -265q-15 -82 -81 -137.5t-148 -56.5q-73 0 -122 49q-48 48 -48 119q0 17 3 35l47 264q2 10 10 15.5t18 4.5q9 -2 14.5 -10t3.5 -18l-46 -265q-2 -18 -2 -26q1 -53 34 -86t88 -34q63 -1 117.5 45.5t64.5 109.5l47 264q2 10 9.5 15.5 t17.5 4.5zM321 592q-14 0 -14 9q-1 6 2 11l49 93q9 18 25 18q14 0 29 -7.5t16 -15.5q1 -7 -8 -18l-69 -77q-12 -13 -30 -13z" />
<glyph unicode="&#xfb;" d="M509 488q10 -2 15.5 -10t3.5 -18l-46 -265q-15 -82 -81 -137.5t-148 -56.5q-73 0 -122 49q-48 48 -48 119q0 17 3 35l47 264q2 10 10 15.5t18 4.5q9 -2 14.5 -10t3.5 -18l-46 -265q-2 -18 -2 -26q1 -53 34 -86t88 -34q63 -1 117.5 45.5t64.5 109.5l47 264q2 10 9.5 15.5 t17.5 4.5zM377 663l-70 -58q-17 -13 -34 -13q-12 0 -12 10q2 7 7 12l84 88q16 18 30 18h8q13 0 26 -18l60 -88q4 -7 3 -12q0 -10 -15 -10q-19 0 -31 13z" />
<glyph unicode="&#xfc;" d="M509 488q10 -2 15.5 -10t3.5 -18l-46 -265q-15 -82 -81 -137.5t-148 -56.5q-73 0 -122 49q-48 48 -48 119q0 17 3 35l47 264q2 10 10 15.5t18 4.5q9 -2 14.5 -10t3.5 -18l-46 -265q-2 -18 -2 -26q1 -53 34 -86t88 -34q63 -1 117.5 45.5t64.5 109.5l47 264q2 10 9.5 15.5 t17.5 4.5zM241 637q3 18 17.5 30.5t32.5 12.5t28.5 -12.5t7.5 -30.5q-4 -18 -18.5 -30.5t-32.5 -12.5t-28.5 12.5t-6.5 30.5zM406 637q3 18 17.5 30.5t32.5 12.5t28.5 -12.5t7.5 -30.5q-4 -18 -18.5 -30.5t-32.5 -12.5t-28.5 12.5t-6.5 30.5z" />
<glyph unicode="&#xfd;" horiz-adv-x="588" d="M502 480q6 -6 6 -13q2 -3 0 -7l-75 -426q-17 -95 -94.5 -160.5t-172.5 -66.5q-52 0 -98 23q-21 12 -10 34q11 20 32 9q34 -18 76 -18q76 -1 141.5 55t78.5 132l4 23q-69 -64 -157 -64q-74 0 -123 47q-47 47 -47 119q0 18 3 36l46 266q2 9 10 14.5t18 4.5q24 -6 19 -28 l-47 -266q-2 -9 -2 -27q1 -52 34.5 -85.5t88.5 -33.5q62 -1 116.5 45t64.5 110l47 266q1 9 9.5 15t17.5 4t14 -8zM326 592q-14 0 -14 9q-1 6 2 11l49 93q9 18 25 18q14 0 29 -7.5t16 -15.5q1 -7 -8 -18l-69 -77q-12 -13 -30 -13z" />
<glyph unicode="&#xff;" horiz-adv-x="588" d="M502 480q6 -6 6 -13q2 -3 0 -7l-75 -426q-17 -95 -94.5 -160.5t-172.5 -66.5q-52 0 -98 23q-21 12 -10 34q11 20 32 9q34 -18 76 -18q76 -1 141.5 55t78.5 132l4 23q-69 -64 -157 -64q-74 0 -123 47q-47 47 -47 119q0 18 3 36l46 266q2 9 10 14.5t18 4.5q24 -6 19 -28 l-47 -266q-2 -9 -2 -27q1 -52 34.5 -85.5t88.5 -33.5q62 -1 116.5 45t64.5 110l47 266q1 9 9.5 15t17.5 4t14 -8zM228 637q3 18 17.5 30.5t32.5 12.5t28.5 -12.5t7.5 -30.5q-4 -18 -18.5 -30.5t-32.5 -12.5t-28.5 12.5t-6.5 30.5zM393 637q3 18 17.5 30.5t32.5 12.5 t28.5 -12.5t7.5 -30.5q-4 -18 -18.5 -30.5t-32.5 -12.5t-28.5 12.5t-6.5 30.5z" />
<glyph unicode="&#x152;" horiz-adv-x="1152" d="M613 24l29 165q-58 -86 -146.5 -137.5t-183.5 -51.5q-141 0 -221 103.5t-54 251.5q27 148 143.5 251.5t257.5 103.5q95 0 164.5 -51.5t97.5 -137.5l28 155q1 10 9.5 17t18.5 7h360q10 0 16 -7t4 -17q-2 -11 -10.5 -18t-18.5 -7h-335l-49 -277h293q10 0 15.5 -7.5 t4.5 -17.5t-9.5 -17t-18.5 -7h-293l-49 -276h335q10 0 16 -7t4 -18q-6 -24 -29 -24h-362q-9 1 -14 8t-3 16zM86 355q-22 -128 46.5 -217t188.5 -89q116 0 216 89.5t123 216.5q22 129 -46 217t-185 88q-120 0 -220.5 -88t-122.5 -217z" />
<glyph unicode="&#x153;" horiz-adv-x="1055" d="M475 432q35 -36 47 -90q38 66 103.5 107t139.5 42q88 0 145 -59t57 -146q0 -8 -2 -26q0 -1 -0.5 -3t-0.5 -3q-5 -18 -23 -18h-406q-2 -10 -2 -30q0 -69 42.5 -112.5t111.5 -44.5q49 0 96.5 24.5t80.5 66.5q7 8 16.5 9t17.5 -6q8 -6 9 -15.5t-6 -17.5q-40 -50 -96.5 -79.5 t-117.5 -29.5h-1q-88 0 -145 59q-36 36 -50 90q-37 -66 -101 -107t-135 -41h-1q-85 0 -141 59q-55 58 -55 145q0 24 4 45q18 100 96.5 170t174.5 71q85 0 142 -60zM478 251q4 24 4 37q-1 68 -42 111.5t-107 44.5h-2q-76 0 -142 -59.5t-80 -142.5q-3 -18 -3 -36 q1 -69 42 -112.5t107 -44.5q76 -1 142.5 59t80.5 143zM765 443q-68 1 -129.5 -44.5t-87.5 -114.5h371v2q-1 69 -43 112.5t-111 44.5z" />
<glyph unicode="&#x178;" horiz-adv-x="716" d="M317 805q-3 -14 -15 -24.5t-27 -10.5t-23.5 10.5t-5.5 24.5q2 15 14.5 25.5t26.5 10.5q15 0 23.5 -10.5t6.5 -25.5zM484 805q-3 -14 -15 -24.5t-27 -10.5t-23.5 10.5t-5.5 24.5q2 15 14.5 25.5t26.5 10.5q15 0 23.5 -10.5t6.5 -25.5zM581 658l-294 -324l-55 -315 q-1 -9 -8.5 -14.5t-15.5 -5.5h-5q-10 1 -16 9.5t-4 18.5l56 314l-178 321q-5 9 -2 18.5t11 14.5q9 5 19 2.5t15 -11.5l165 -299l275 303q7 8 17 8.5t18 -6.5q18 -16 2 -34z" />
<glyph unicode="&#x2c6;" horiz-adv-x="500" d="M257 663l-70 -58q-17 -13 -34 -13q-12 0 -12 10q2 7 7 12l84 88q16 18 30 18h8q13 0 26 -18l60 -88q4 -7 3 -12q0 -10 -15 -10q-19 0 -31 13z" />
<glyph unicode="&#x2dc;" horiz-adv-x="500" d="M142 598q-9 -14 -20 -14q-8 0 -12.5 5t-3.5 12l4 12q19 42 40 58.5t49 16.5q19 0 62 -20.5t60 -20.5q29 0 50 38q9 14 20 14q8 0 12.5 -5t3.5 -12q0 -6 -4 -12q-19 -42 -40 -58.5t-49 -16.5q-20 0 -63 20.5t-59 20.5q-29 0 -50 -38z" />
<glyph unicode="&#x2000;" horiz-adv-x="461" />
<glyph unicode="&#x2001;" horiz-adv-x="923" />
<glyph unicode="&#x2002;" horiz-adv-x="461" />
<glyph unicode="&#x2003;" horiz-adv-x="923" />
<glyph unicode="&#x2004;" horiz-adv-x="307" />
<glyph unicode="&#x2005;" horiz-adv-x="230" />
<glyph unicode="&#x2006;" horiz-adv-x="153" />
<glyph unicode="&#x2007;" horiz-adv-x="153" />
<glyph unicode="&#x2008;" horiz-adv-x="115" />
<glyph unicode="&#x2009;" horiz-adv-x="184" />
<glyph unicode="&#x200a;" horiz-adv-x="51" />
<glyph unicode="&#x2010;" horiz-adv-x="408" d="M85 328q-19 0 -19 20q0 18 19 18h213q19 0 19 -18q0 -9 -5.5 -14.5t-13.5 -5.5h-213z" />
<glyph unicode="&#x2011;" horiz-adv-x="408" d="M85 328q-19 0 -19 20q0 18 19 18h213q19 0 19 -18q0 -9 -5.5 -14.5t-13.5 -5.5h-213z" />
<glyph unicode="&#x2013;" horiz-adv-x="528" d="M90 271q-11 0 -17 8t-4 18q1 10 10 18t20 8h344q10 0 17 -7.5t5 -18.5t-11.5 -18.5t-19.5 -7.5h-344z" />
<glyph unicode="&#x2014;" horiz-adv-x="898" d="M89 271q-11 0 -16.5 8t-2.5 18q2 10 11.5 18t20.5 8h714q10 0 16 -7.5t4 -18.5q-3 -11 -13 -18.5t-20 -7.5h-714z" />
<glyph unicode="&#x2018;" horiz-adv-x="230" d="M207 524q3 -15 -12 -15q-19 0 -60 32q-31 27 -48 104l-5 25q-4 13 3.5 23t21.5 10q13 0 25 -9.5t16 -23.5l4 -21q6 -28 -20 -35q7 -49 64 -77q9 -5 11 -13z" />
<glyph unicode="&#x2019;" horiz-adv-x="230" d="M61 524q2 8 11 13q57 28 64 77q-26 7 -20 35l4 21q4 14 16 23.5t25 9.5q14 0 21.5 -10t3.5 -23l-5 -25q-17 -77 -48 -104q-41 -32 -60 -32q-15 0 -12 15z" />
<glyph unicode="&#x201c;" horiz-adv-x="410" d="M387 688q-2 -8 -11 -13q-57 -28 -64 -77q26 -7 20 -35l-4 -21q-4 -14 -16 -23.5t-25 -9.5q-14 0 -21.5 10t-3.5 23l5 25q17 77 48 104q41 32 60 32q15 0 12 -15zM207 688q-2 -8 -11 -13q-57 -28 -64 -77q26 -7 20 -35l-4 -21q-4 -14 -16 -23.5t-25 -9.5q-14 0 -21.5 10 t-3.5 23l5 25q17 77 48 104q41 32 60 32q15 0 12 -15z" />
<glyph unicode="&#x201d;" horiz-adv-x="410" d="M61 524q2 8 11 13q57 28 64 77q-26 7 -20 35l4 21q4 14 16 23.5t25 9.5q14 0 21.5 -10t3.5 -23l-5 -25q-17 -77 -48 -104q-41 -32 -60 -32q-15 0 -12 15zM241 524q2 8 11 13q57 28 64 77q-26 7 -20 35l4 21q4 14 16 23.5t25 9.5q14 0 21.5 -10t3.5 -23l-5 -25 q-17 -77 -48 -104q-41 -32 -60 -32q-15 0 -12 15z" />
<glyph unicode="&#x201e;" horiz-adv-x="410" d="M56 -82q2 8 11 13q57 28 64 77q-26 7 -20 35l4 21q4 14 16 23.5t25 9.5q14 0 21.5 -10t3.5 -23l-5 -25q-16 -77 -48 -104q-41 -32 -60 -32q-15 0 -12 15zM236 -82q2 8 11 13q57 28 64 77q-26 7 -20 35l4 21q4 14 16 23.5t25 9.5q14 0 21.5 -10t3.5 -23l-5 -25 q-16 -77 -48 -104q-41 -32 -60 -32q-15 0 -12 15z" />
<glyph unicode="&#x2022;" horiz-adv-x="470" d="M224 228q-51 0 -80.5 36t-20.5 87l1 2q9 50 53.5 86.5t93.5 36.5t79.5 -36.5t21.5 -86.5l-1 -2q-9 -51 -52.5 -87t-94.5 -36z" />
<glyph unicode="&#x2026;" horiz-adv-x="680" d="M202 58q-5 -25 -24.5 -41.5t-44.5 -16.5t-37 16.5t-7 41.5q4 24 22.5 40.5t43.5 16.5t38 -16.5t9 -40.5zM443 58q-5 -25 -24.5 -41.5t-44.5 -16.5t-37 16.5t-7 41.5q4 24 22.5 40.5t43.5 16.5t38 -16.5t9 -40.5zM684 58q-5 -25 -24.5 -41.5t-44.5 -16.5t-37 16.5t-7 41.5 q4 24 22.5 40.5t43.5 16.5t38 -16.5t9 -40.5z" />
<glyph unicode="&#x202f;" horiz-adv-x="184" />
<glyph unicode="&#x2039;" horiz-adv-x="311" d="M185 45q-12 0 -17 11l-106 179q-7 13 -6 22t14 22l168 179q11 11 21 11q9 0 14.5 -6t4.5 -15q-2 -10 -9 -17l-157 -173l95 -175q5 -8 3 -17q-4 -21 -25 -21z" />
<glyph unicode="&#x203a;" horiz-adv-x="311" d="M162 469q12 0 17 -11l106 -179q7 -13 6 -22t-14 -22l-168 -179q-11 -11 -21 -11q-9 0 -14.5 6t-4.5 15q2 10 9 17l157 173l-95 175q-5 8 -3 17q1 9 8.5 15t16.5 6z" />
<glyph unicode="&#x205f;" horiz-adv-x="230" />
<glyph unicode="&#x2122;" horiz-adv-x="690" d="M83 400q-11 2 -9 12l47 268h-89q-10 0 -10 11q0 10 10 10h203q10 0 10 -10q0 -11 -10 -11h-93l-47 -271q-2 -9 -11 -9h-1zM513 399q-10 2 -8 12l43 245l-120 -134q-3 -3 -8 -3h-1q-6 0 -9 6l-73 134l-44 -251q-1 -9 -11 -9h-2q-9 1 -9 12l50 280q2 9 11 9q5 0 10 -5 l80 -148l134 149q3 4 8 4h2q11 -2 9 -12l-50 -280q-1 -9 -10 -9h-2z" />
</font>
</defs>
</svg>
