<?xml version="1.0" standalone="no"?>
<!DOCTYPE svg PUBLIC "-//W3C//DTD SVG 1.1//EN" "http://www.w3.org/Graphics/SVG/1.1/DTD/svg11.dtd" >
<svg xmlns="http://www.w3.org/2000/svg">
<metadata>
This is a custom SVG webfont generated by Font Squirrel.
Copyright   : This font drawn by, and copyright, Ben Weiner, 1999-2001. Modifications for version 2.0 copyright Ben Weiner, 2006-7. Licensed under the Open Font License (http://scripts.sil.org/OFL). See accompanying license and FONTLOG.
</metadata>
<defs>
<font id="webfont" horiz-adv-x="500" >
<font-face units-per-em="1000" ascent="800" descent="-200" />
<missing-glyph horiz-adv-x="273" />
<glyph unicode=" "  horiz-adv-x="273" />
<glyph unicode="&#x09;" horiz-adv-x="273" />
<glyph unicode="&#xa0;" horiz-adv-x="273" />
<glyph unicode="!" horiz-adv-x="235" d="M40 172l54 514h125l-54 -514h-125zM7 44q4 32 28 55t57 23q32 0 53 -23t17 -55q-3 -33 -28.5 -55t-58.5 -22q-31 0 -51 22.5t-17 54.5z" />
<glyph unicode="&#x22;" horiz-adv-x="329" d="M202 645l-2 -220h34l63 220h-95zM61 645l-2 -220h33l63 220h-94z" />
<glyph unicode="#" horiz-adv-x="536" d="M377 529l-4 -34l72 7l-9 -83l-72 -8l-10 -87l-89 -10l11 88l-37 -4l-10 -87l-89 -10l10 88l-93 -10l9 83l93 10l4 35l-92 -10l8 83l93 10l7 68l89 9l-8 -67l38 3l7 68l89 11l-8 -69l73 7l-9 -83zM248 482l36 3l4 35l-36 -4z" />
<glyph unicode="$" horiz-adv-x="536" d="M286 -100h-117l10 90q-87 17 -130 90l74 79q53 -75 119 -75q33 0 59 25.5t30 64.5q4 42 -53 67q-104 46 -110 50q-60 42 -60 121q0 14 1 29q7 57 45 101q36 41 89 59l10 89h117l-10 -86q50 -14 108 -67l-70 -77q-55 54 -101 54q-28 0 -47.5 -20.5t-23.5 -57.5 q-4 -36 53 -57q89 -33 108 -46q59 -42 59 -128q0 -14 -2 -30q-14 -143 -148 -182z" />
<glyph unicode="%" horiz-adv-x="536" d="M178 650q51 0 81 -37.5t24 -94.5q-7 -63 -43.5 -98t-88.5 -35q-48 0 -77 29t-29 83q0 61 36 105q38 48 97 48zM-32 -46l439 680l95 -38l-432 -678zM254 131q6 57 44.5 95.5t90.5 38.5q51 0 81 -38.5t24 -95.5q-7 -66 -43.5 -101.5t-89.5 -35.5q-49 0 -78.5 29.5 t-29.5 84.5q0 11 1 23zM139 515q-4 -41 21 -41q24 0 28 41q5 44 -20 44q-24 0 -29 -44zM349 127q-4 -42 21 -42q24 0 28 42q5 45 -20 45q-24 0 -29 -45z" />
<glyph unicode="&#x26;" horiz-adv-x="555" d="M116 186q-4 -41 16 -73q23 -38 69 -38q41 0 88 45q-96 102 -123 172q-41 -28 -50 -106zM351 60q-21 -28 -66 -48.5t-89 -20.5q-91 0 -141 49q-46 45 -46 116q0 61 35 118q32 55 86 89q-27 55 -21 112q7 71 61 118t123 47q42 0 69 -13q32 -16 64 -59l-63 -62 q-33 46 -96 46q-41 0 -48 -63q-3 -28 11 -75q43 16 111 18l8 -80q-51 0 -80 -8q48 -80 87 -131q6 15 7 29q4 33 -1 72l90 16q3 -55 0 -77q-5 -51 -29 -108q19 -19 87 -58l-73 -87q-32 12 -86 60z" />
<glyph unicode="'" horiz-adv-x="194" d="M62 646l5 -233h29l60 233h-94z" />
<glyph unicode="(" horiz-adv-x="318" d="M211 789l76 -45q-117 -244 -136 -421q-5 -45 -5 -88q0 -78 17 -167q6 -32 38 -168l-88 -43q-72 181 -72 369q0 295 170 563z" />
<glyph unicode=")" horiz-adv-x="316" d="M29 -100q72 163 87 204q39 108 51 215q5 47 5 94q0 144 -52 332l86 43q69 -164 69 -355q0 -300 -167 -576z" />
<glyph unicode="*" horiz-adv-x="275" d="M162 500l-4 -54h-75l8 54l-46 -38l-35 70l64 37l-55 38l47 70l40 -39l4 56l75 -2l-9 -52l45 38l33 -71l-61 -37l55 -38l-49 -70z" />
<glyph unicode="+" horiz-adv-x="498" d="M295 96h-92v170h-151v94h151v161h92v-161h151v-94h-151v-170z" />
<glyph unicode="," horiz-adv-x="254" d="M97 -107l-65 13q24 41 36 93q2 10 14 86h105q-4 -36 -34 -99q-29 -59 -56 -93z" />
<glyph unicode="-" horiz-adv-x="380" d="M55 360h280l-10 -93h-280z" />
<glyph unicode="&#x2010;" horiz-adv-x="380" d="M55 360h280l-10 -93h-280z" />
<glyph unicode="." horiz-adv-x="244" d="M36 77q4 36 32.5 61.5t63.5 25.5q36 0 59 -25.5t19 -61.5t-32.5 -61t-63.5 -25t-58.5 25t-19.5 61z" />
<glyph unicode="/" horiz-adv-x="385" d="M-58 -149l400 856l118 -24l-399 -856z" />
<glyph unicode="0" d="M35 103q-31 64 -31 150q0 29 3 62q15 144 81 236q76 105 196 105q106 0 161 -83q50 -73 50 -195q0 -31 -4 -63q-12 -120 -79 -212q-83 -115 -198 -115q-123 0 -179 115zM224 85q73 0 115 84q29 59 38 146q5 48 5 82q0 162 -108 162q-80 0 -118 -89q-21 -51 -32 -155 q-3 -30 -3 -59q0 -171 103 -171z" />
<glyph unicode="1" d="M440 100l-10 -100h-362l10 100h133l46 434h-124l10 103h232l-56 -537h121z" />
<glyph unicode="2" d="M60 99l200 196q90 87 97 160q5 46 -16 78t-65 32q-58 0 -117 -88l-70 50q86 131 195 131q86 0 140 -50t54 -129q0 -72 -51 -146q-38 -56 -114 -122l-122 -100h266l-12 -111h-396z" />
<glyph unicode="3" d="M87 145q66 -77 130 -77q57 0 91 37q28 31 33 78q4 45 -20 75q-28 34 -82 34h-62l9 86h62q42 0 74.5 30t37.5 74q4 35 -20.5 62.5t-62.5 27.5q-32 0 -57 -18q-16 -11 -50 -48l-56 57q85 97 172 97q71 0 123 -45q58 -50 50 -126q-6 -53 -41 -89q-23 -24 -71 -49 q48 -25 76 -70q33 -50 27 -107q-7 -65 -65 -125q-67 -68 -156 -68q-137 0 -201 88z" />
<glyph unicode="4" d="M127 230h148l25 234zM360 0h-109l15 141h-269l8 76l329 434h94l-44 -421h87l-9 -89h-87z" />
<glyph unicode="5" d="M-1 64l56 74q54 -77 143 -77q56 0 102 52q40 46 45 94q1 11 1 20q0 96 -103 96q-20 0 -54 -20q-38 -21 -60 -49l-80 20l39 370h370l-12 -111h-290l-19 -186q22 28 57 49q43 26 85 26q77 0 127 -50q52 -53 52 -139q0 -112 -81 -184.5t-195 -72.5q-138 0 -183 88z" />
<glyph unicode="6" d="M124 193q-6 -56 21 -93q30 -42 89 -42q54 0 96 55q38 51 38 107q0 51 -26.5 78.5t-72.5 27.5q-55 0 -95 -34q-44 -37 -50 -99zM11 270q18 168 86 267q82 119 229 119q69 0 157 -45l-49 -83q-44 36 -119 36q-78 0 -128 -73q-41 -59 -57 -156q27 45 89 70q44 17 77 17 q78 0 127 -44q54 -48 54 -134q0 -15 -2 -31q-10 -97 -78 -164q-71 -71 -172 -71q-94 0 -151 54q-66 62 -66 185q0 25 3 53z" />
<glyph unicode="7" d="M155 -32l-106 30l327 537h-316l12 109h422l-11 -101z" />
<glyph unicode="8" d="M125 179q-7 -61 28 -94q28 -27 68 -27q47 0 82.5 34.5t41.5 86.5q9 89 -94 132q-118 -57 -126 -132zM192 497q5 -68 68 -96q94 35 100 94q4 36 -18 62t-56 26q-31 0 -57 -21q-29 -24 -37 -65zM21 177q12 106 155 175q-98 69 -90 142q9 83 75 127q56 37 133 37 q66 0 110 -33q50 -36 50 -103q0 -92 -113 -164q118 -67 118 -160q0 -103 -71 -166q-67 -60 -172 -60q-86 0 -138 43q-58 47 -58 134q0 13 1 28z" />
<glyph unicode="9" d="M-2 56l68 77q38 -38 68.5 -52.5t77.5 -14.5q70 0 115 81q35 63 45 155q-80 -84 -153 -84q-76 0 -130 51.5t-54 134.5q0 105 73 178.5t179 73.5q85 0 142 -57q66 -65 66 -186q0 -24 -3 -50q-16 -149 -72 -248q-81 -141 -226 -141q-119 0 -196 82zM144 432q-5 -51 23 -92 q29 -44 76 -44q62 0 100 44t38 107q0 52 -23 86q-28 39 -80 39q-53 0 -90 -39.5t-44 -100.5z" />
<glyph unicode=":" horiz-adv-x="244" d="M54 420q4 36 32.5 61t63.5 25q36 0 59 -25t19 -61t-32.5 -61.5t-63.5 -25.5t-58.5 25.5t-19.5 61.5zM18 77q4 36 32.5 61.5t63.5 25.5q36 0 59 -25.5t19 -61.5t-32.5 -61t-63.5 -25t-58.5 25t-19.5 61z" />
<glyph unicode=";" horiz-adv-x="254" d="M91 418q9 86 78 86q66 0 57 -86t-75 -86q-69 0 -60 86zM75 -107l-65 13q24 41 36 93q2 10 14 86h105q-4 -36 -34 -99q-29 -59 -56 -93z" />
<glyph unicode="&#x3c;" horiz-adv-x="366" d="M359 46l-122 -4l-237 247l236 240l123 -4l-201 -240z" />
<glyph unicode="=" horiz-adv-x="441" d="M89 352h321v-98h-321v98zM89 223h321v-98h-321v98z" />
<glyph unicode="&#x3e;" horiz-adv-x="365" d="M-14 46l201 239l-203 240l123 4l236 -240l-236 -247z" />
<glyph unicode="?" horiz-adv-x="546" d="M154 60q3 30 27.5 52t55.5 22q33 0 54 -21.5t18 -52.5q-4 -31 -29 -52t-58 -21q-32 0 -52 21t-16 52zM384 356q-58 -40 -87 -105q-7 -15 -13 -73h-98q-2 19 3 49q3 20 7 41q5 52 31 84q20 26 88 77q51 38 56 80q4 37 -17 66.5t-53 29.5q-80 0 -127 -105l-90 39 q44 83 93.5 117.5t129.5 34.5q90 0 139 -45q44 -41 44 -113q0 -12 -1 -24q-6 -52 -33 -89q-22 -29 -72 -64z" />
<glyph unicode="@" horiz-adv-x="1010" d="M626 470l8 40h90q-7 -82 -25 -190l-33 -191l8 -48q6 -17 45 -17q42 0 87 66t45 139q0 153 -94 253.5t-244 100.5t-257 -119q-104 -115 -104 -266q0 -160 86 -273q91 -122 235 -122q104 0 170 29q62 28 144 107l60 -69q-100 -91 -152 -115q-78 -37 -222 -37 q-204 0 -326 142q-114 134 -114 338q0 190 140.5 325t339.5 135q198 0 317.5 -118.5t119.5 -310.5q0 -109 -86.5 -199.5t-194.5 -90.5q-60 0 -92 97q-68 -96 -153 -96q-175 0 -175 219q0 115 74 212q82 109 206 109q30 0 55 -16zM526 436q-50 0 -94 -46q-60 -61 -60 -178 q0 -64 12 -93q19 -49 75 -49q30 0 73.5 44t50.5 85l34 188q-13 17 -42 33t-49 16z" />
<glyph unicode="A" horiz-adv-x="568" d="M362 148h-207l-63 -160l-103 14l277 652h102l142 -647l-118 -19zM192 241h153l-48 260z" />
<glyph unicode="B" horiz-adv-x="501" d="M29 2l68 639q8 0 94 2q63 2 100 2q74 0 115.5 -36.5t41.5 -103.5q0 -11 -1 -23q-9 -83 -104 -131q52 -4 86.5 -51t27.5 -108q-12 -115 -99 -161q-63 -33 -182 -33q-27 0 -77.5 2t-69.5 2zM207 569l-20 -189h44q45 0 75 28q27 26 31 65q9 98 -73 98q-21 0 -57 -2zM179 304 l-23 -223h67q53 0 85 32q30 29 35 80q5 42 -20 75q-28 36 -79 36h-65z" />
<glyph unicode="C" horiz-adv-x="557" d="M348 660q85 0 190 -69l-50 -78q-59 37 -61 39q-34 17 -72 17q-81 0 -136 -90q-45 -72 -54 -161q-2 -17 -2 -34q0 -82 40 -135t99 -53q35 0 68 12q25 9 81 39l39 -78q-71 -43 -110 -58q-50 -19 -107 -19q-123 0 -187 87q-57 77 -57 199q0 149 83 260q91 122 236 122z" />
<glyph unicode="D" horiz-adv-x="565" d="M29 2l68 641q80 4 163 4q276 0 276 -264q0 -29 -3 -60q-15 -153 -102 -237q-90 -88 -243 -88q-24 0 -71 2t-88 2zM260 569h-23q-16 -1 -26 -1l-51 -481h55q77 0 133 73q50 65 59 153q3 32 3 61q0 195 -150 195z" />
<glyph unicode="E" horiz-adv-x="462" d="M186 391h227l-9 -89l-227 1l-22 -214h240l-10 -89h-356l68 640h359l-9 -85h-243z" />
<glyph unicode="F" horiz-adv-x="463" d="M186 391h229l-9 -89h-229l-32 -302h-116l68 640h360l-9 -85h-244z" />
<glyph unicode="G" horiz-adv-x="582" d="M267 -6q-118 0 -182 88q-57 78 -57 197q0 22 3 44q11 121 85 220q89 117 218 117q46 0 102 -17q65 -21 101 -53l-49 -76q-74 55 -142 55q-74 0 -129 -91q-45 -75 -54 -160q-2 -20 -2 -39q0 -81 33.5 -134t86.5 -53q61 0 96 16l21 196h-131l9 87h250l-35 -326 q-69 -40 -109 -53q-51 -18 -115 -18z" />
<glyph unicode="H" horiz-adv-x="582" d="M399 302h-219l-32 -302h-119l68 640h119l-27 -249h219l27 249h118l-68 -640h-118z" />
<glyph unicode="I" horiz-adv-x="245" d="M97 641h119l-68 -641h-119z" />
<glyph unicode="J" horiz-adv-x="247" d="M-30 -187q-55 0 -91 20q-21 13 -64 56l68 75q22 -29 37 -40q21 -15 52 -15q59 0 75 151l60 580h120l-60 -573q-26 -254 -197 -254z" />
<glyph unicode="K" horiz-adv-x="542" d="M209 255l-40 -49l-21 -206h-119l67 641h119l-30 -290l235 322l99 -53l-238 -290q30 -60 105 -161l123 -161l-144 -31q-84 134 -156 278z" />
<glyph unicode="L" horiz-adv-x="501" d="M97 641h117l-59 -556h258l-9 -85h-375z" />
<glyph unicode="M" horiz-adv-x="793" d="M599 427l-197 -428h-104l-107 432l-46 -431h-106l68 642h152l124 -472l228 472h142l-68 -642h-131z" />
<glyph unicode="N" horiz-adv-x="582" d="M176 401l-43 -401h-103l68 644h96l215 -405l42 401h102l-65 -625l-99 -30q-79 180 -213 416z" />
<glyph unicode="O" horiz-adv-x="644" d="M33 322q14 140 106.5 232t221.5 92q116 0 185.5 -78t69.5 -202q0 -21 -2 -44q-17 -159 -113 -251q-89 -87 -217 -87q-114 0 -182 73q-72 76 -72 210q0 27 3 55zM155 276q0 -85 37 -142q39 -60 102 -60q88 0 146 99q50 84 50 179q0 88 -36 145q-39 61 -104 61 q-90 0 -147 -100q-48 -85 -48 -182z" />
<glyph unicode="P" horiz-adv-x="475" d="M172 259l-27 -259h-116l68 641l188 3q76 1 126.5 -47.5t50.5 -123.5q0 -87 -77 -153q-73 -63 -162 -63q-11 0 -51 2zM205 569l-25 -242h32q50 0 89 36.5t44 84.5q1 11 1 21q0 93 -97 102q-7 1 -22 -0.5t-22 -1.5z" />
<glyph unicode="Q" horiz-adv-x="658" d="M438 41q-84 -60 -150 -60q-114 0 -185 75.5t-71 210.5q0 26 3 54q15 141 108 233t222 92q117 0 187 -77t70 -200q0 -161 -99 -247l116 -116l-84 -84zM158 276q0 -85 36 -143q39 -61 101 -61q42 0 81 29l-70 63l87 83l63 -62q26 36 36 130q2 20 2 40q0 86 -35 142 q-39 60 -105 60q-90 0 -147 -99q-49 -85 -49 -182z" />
<glyph unicode="R" horiz-adv-x="522" d="M195 263h-22l-27 -263h-116l67 641q28 0 104 2q54 1 89 1q169 -1 169 -155q0 -15 -2 -31q-8 -69 -53 -120q-40 -45 -95 -62q67 -110 201 -260l-149 -27q-48 55 -92 131q-20 36 -74 143zM206 569l-25 -236h41q110 0 123 126q4 42 -9 71q-20 43 -76 41z" />
<glyph unicode="S" horiz-adv-x="454" d="M-2 82l62 77q53 -70 130 -70q104 0 115 102q5 51 -57 79l-124 55q-67 44 -67 130q0 15 2 31q9 82 79 134q59 44 124 44q104 0 181 -71l-49 -84q-61 64 -122 64q-41 0 -61 -16q-27 -20 -32 -72q-5 -45 57 -72q110 -48 120 -54q66 -46 66 -136q0 -14 -2 -30 q-11 -103 -84 -157q-62 -46 -148 -46q-135 0 -190 92z" />
<glyph unicode="T" horiz-adv-x="536" d="M298 0h-119l59 558h-182l9 81h473l-9 -81h-172z" />
<glyph unicode="U" horiz-adv-x="611" d="M263 -17q-86 0 -143 50q-67 58 -67 164q0 19 2 38l43 405h119l-43 -405q-1 -13 -1 -25q0 -68 38 -107q33 -32 74 -32q44 0 82 39q46 46 54 125l43 405h119l-43 -405q-13 -125 -104 -194q-76 -58 -173 -58z" />
<glyph unicode="V" horiz-adv-x="542" d="M192 -10l-152 636l127 31l105 -470l194 471l100 -33l-287 -635h-87z" />
<glyph unicode="W" horiz-adv-x="789" d="M495 -6l-80 402l-171 -402h-88l-113 628l135 26l66 -440l155 428h103l65 -427l150 440l97 -28l-241 -627h-78z" />
<glyph unicode="X" horiz-adv-x="552" d="M267 244l-166 -274l-107 40l221 307l-146 304l120 41l104 -255l160 257l89 -44l-207 -291l180 -319l-129 -35z" />
<glyph unicode="Y" horiz-adv-x="503" d="M276 0h-118l28 271l-144 350l126 33l100 -283l165 283l89 -33l-218 -350z" />
<glyph unicode="Z" horiz-adv-x="544" d="M455 99l-11 -99h-417l-18 74l357 476l-274 -2l10 91h403l14 -84l-348 -456h284z" />
<glyph unicode="[" horiz-adv-x="225" d="M117 740h156l-9 -87h-58l-70 -662h65l-11 -105h-163z" />
<glyph unicode="\" horiz-adv-x="385" d="M50 683l111 24l189 -856l-111 -24z" />
<glyph unicode="]" horiz-adv-x="266" d="M16 -9h65l70 662h-57l9 87h152l-90 -854h-160z" />
<glyph unicode="^" horiz-adv-x="536" d="M152 443l-52 72l180 171l147 -171l-68 -72l-92 119z" />
<glyph unicode="_" horiz-adv-x="536" d="M8 -50h525l-6 -59h-525z" />
<glyph unicode="`" horiz-adv-x="329" d="M323 626l-206 89l-70 -78l206 -83z" />
<glyph unicode="a" horiz-adv-x="491" d="M296 223q-30 0 -74 -8q-48 -8 -65 -19q-26 -15 -31 -59q-3 -28 13 -49.5t40 -21.5q60 0 105 48zM289 54q-46 -37 -63 -48q-36 -22 -69 -22q-55 0 -92 35t-37 96q0 10 1 21q9 83 61 118q33 21 126 39q47 9 86 13l6 52q2 22 -14 41.5t-40 19.5q-91 0 -155 -68l-37 61 q32 45 97 74q57 26 105 26q71 0 114.5 -46t36.5 -117l-27 -251q0 -6 6.5 -14t14.5 -8q32 0 43 10l4 -64q-65 -33 -101 -33q-16 0 -37 18q-25 21 -29 47z" />
<glyph unicode="b" horiz-adv-x="515" d="M132 46l-13 -47h-91l73 701h108l-28 -266q23 34 71 60q45 24 76 24q71 0 111 -62q35 -55 35 -136q0 -18 -2 -35q-32 -295 -227 -295q-35 0 -113 56zM171 335l-22 -207q14 -18 43.5 -33t53.5 -15q57 0 84 67q16 40 25 124q3 23 3 44q0 114 -75 114q-56 0 -112 -94z" />
<glyph unicode="c" horiz-adv-x="479" d="M38 242q14 134 100 207q72 63 164 62q58 0 146 -64l-40 -69q-60 53 -123 53t-101 -84q-31 -68 -31 -141q0 -63 27.5 -101t73.5 -38q59 0 137 64l38 -59q-81 -84 -183 -84q-118 0 -171 84q-38 59 -38 143q0 15 1 27z" />
<glyph unicode="d" horiz-adv-x="511" d="M320 -1l-3 50l-65 -38q-44 -24 -67 -24q-81 0 -124 68q-36 59 -36 150q0 99 48 196q58 117 145 117q51 0 77 -12q14 -7 58 -44l24 235h108l-73 -698h-92zM246 429q-82 0 -100 -170q-2 -25 -2 -49q0 -135 74 -135q30 0 99 52l23 215q-28 47 -37 57q-25 30 -57 30z" />
<glyph unicode="e" horiz-adv-x="491" d="M256 68q65 -1 137 63l38 -61q-57 -50 -95.5 -66t-94.5 -16q-117 0 -168 86q-36 59 -36 144q0 16 2 29q12 113 79 186q72 77 181 77q69 0 114 -43q49 -47 49 -126q0 -14 -1 -28l-8 -75h-296q-2 -24 -2 -43q0 -126 101 -127zM353 323q2 15 2 28q0 81 -71 81q-33 0 -63 -26 q-33 -30 -48 -83h180z" />
<glyph unicode="f" horiz-adv-x="324" d="M264 657q-35 1 -48 -63l-10 -96h124l-9 -90h-124l-43 -408h-105l43 408h-70l9 90h70l6 53q20 195 165 195q46 0 69 -14q4 -3 44 -42l-55 -67q-35 33 -66 34z" />
<glyph unicode="g" horiz-adv-x="511" d="M447 323q-8 -80 -66.5 -133t-138.5 -53q-26 0 -55 9q-18 -16 -37 -42q-3 -31 42 -37q7 -1 72 -1q100 0 127 -9q59 -19 59 -92q0 -12 -1 -25q-10 -89 -117 -140q-82 -39 -163 -39q-75 0 -117.5 32t-36.5 90q5 54 100 111q-39 0 -61 24q-20 21 -17 50q2 20 41 53 q50 44 54 49q-73 62 -63 150q7 74 68 129t142 55q94 0 134 -58l137 59l-12 -113h-99q10 -49 8 -69zM178 320q-4 -38 13 -70q21 -37 59 -37q36 0 63 33.5t32 78.5q4 34 -18 68.5t-58 34.5q-37 0 -64 -37q-23 -32 -27 -71zM174 -16q-10 -3 -28.5 -28t-21.5 -49q-1 -10 -1 -18 q0 -56 78 -56q49 0 95 34t49 70q4 30 -17 40q-15 7 -60 7h-94z" />
<glyph unicode="h" horiz-adv-x="512" d="M340 326q1 13 1 25q0 69 -47 69q-45 0 -89 -47q-36 -38 -38 -54l-34 -319h-107l74 696h107l-31 -290q67 105 133 105q54 0 95 -41q45 -44 45 -111q0 -10 -1 -20l-36 -339h-107z" />
<glyph unicode="i" horiz-adv-x="233" d="M74 657q3 32 27 53t54 21t49.5 -21t16.5 -53q-4 -32 -27.5 -53.5t-53.5 -21.5t-50 21.5t-16 53.5zM77 495h107l-52 -495h-107z" />
<glyph unicode="j" horiz-adv-x="233" d="M236 658q-3 -32 -27 -53t-54 -21q-31 0 -50.5 21t-16.5 53q4 32 28 53t54 21t50 -21t16 -53zM74 -171q-38 -25 -116 -52l-29 91q87 25 100 68q1 5 6 51l53 508h108l-58 -550q-8 -79 -64 -116z" />
<glyph unicode="k" horiz-adv-x="476" d="M188 222l-34 -44l-19 -179h-107l73 698h107l-43 -408l204 247l88 -65l-205 -196l191 -244l-102 -62z" />
<glyph unicode="l" horiz-adv-x="234" d="M101 698h106l-74 -698h-106z" />
<glyph unicode="m" horiz-adv-x="776" d="M610 339q1 11 1 21q0 60 -47 60q-24 0 -64 -34q-48 -41 -53 -89l-31 -297h-112l34 324q4 37 -11.5 64.5t-37.5 27.5q-30 0 -70.5 -42t-43.5 -68l-32 -306h-107l52 496h107l-9 -89q74 100 139 100q36 0 69 -29t44 -66q86 100 152 100q68 0 106 -55q33 -49 26 -113 l-36 -344h-112z" />
<glyph unicode="n" horiz-adv-x="512" d="M349 320q1 13 1 24q0 77 -48 77q-36 0 -80 -42.5t-47 -75.5l-32 -303h-107l52 496h107l-9 -89q71 104 134 104q58 0 98 -43t40 -113q0 -11 -1 -23l-35 -332h-107z" />
<glyph unicode="o" horiz-adv-x="546" d="M39 252q14 128 102 200q73 60 162 60q81 0 139 -51q67 -61 67 -170q0 -19 -2 -39q-9 -88 -62 -161q-73 -102 -197 -102q-120 0 -173 80q-38 58 -38 146q0 19 2 37zM153 215q0 -63 24 -103q26 -45 75 -45q68 0 108 78q33 64 33 140q0 63 -22 103q-26 45 -72 45 q-71 0 -112 -77q-34 -64 -34 -141z" />
<glyph unicode="p" horiz-adv-x="517" d="M156 28l-23 -225h-107l73 693h107l-9 -82q17 39 61 69t85 30q151 -1 151 -197q0 -26 -3 -55q-30 -284 -238 -284q-30 0 -97 51zM186 310l-21 -196q57 -46 99 -46q46 0 77 62q26 50 32 118q4 35 4 59q0 114 -78 114q-24 0 -64 -43q-36 -38 -49 -68z" />
<glyph unicode="q" horiz-adv-x="511" d="M369 450l5 46h107l-73 -693h-107l25 240q-101 -66 -133 -66q-73 0 -113 64q-36 58 -36 156q0 27 3 55q9 86 57 164q57 92 131 92q46 0 76 -15q19 -9 58 -43zM273 422q-62 -1 -92 -81q-22 -57 -22 -134q0 -61 20 -100q21 -42 55 -42q15 0 47 28q51 42 55 45l21 203 q-6 27 -32 54t-52 27z" />
<glyph unicode="r" horiz-adv-x="338" d="M264 384q-29 -1 -60 -31q-26 -26 -28 -41l-33 -312h-107l53 496h107l-9 -81q16 31 42 59q30 32 54 32q37 0 61 -10l-25 -124q-17 10 -26 12q-4 1 -29 0z" />
<glyph unicode="s" horiz-adv-x="437" d="M27 66l64 75q45 -70 109 -70q32 0 53.5 18t24.5 46q5 50 -105 83q-55 16 -79 41q-30 33 -25 90q9 81 66 126q50 39 116 39h2q66 0 146 -54l-47 -74q-53 41 -101 41q-32 0 -51.5 -17t-21.5 -39q-3 -27 18 -36q33 -14 65 -24q139 -43 129 -146q-9 -87 -71 -136 q-55 -43 -132 -43q-108 0 -160 80z" />
<glyph unicode="t" horiz-adv-x="351" d="M76 154l27 256h-70l9 82h70l11 105h113l-11 -105h100l-9 -83l-100 1l-28 -267q-7 -64 30 -64q31 0 41 4q18 9 36 19l17 -69q-54 -28 -72 -33q-27 -8 -81 -8q-85 0 -85 123q0 18 2 39z" />
<glyph unicode="u" horiz-adv-x="511" d="M324 0q-1 27 -3 71q-78 -89 -133 -89q-56 0 -95 43t-39 115q0 13 1 26l35 329h107l-34 -326q-2 -15 -2 -27q0 -67 44 -67q36 0 83 46q43 42 46 68l32 306h107l-52 -495h-97z" />
<glyph unicode="v" horiz-adv-x="464" d="M169 -12l-129 486l111 31l72 -384l147 384l102 -31l-227 -486h-76z" />
<glyph unicode="w" horiz-adv-x="735" d="M452 -9l-76 316l-144 -316h-87l-99 484l113 28l53 -384l140 374h94l66 -373l127 383l104 -28l-206 -484h-85z" />
<glyph unicode="x" horiz-adv-x="488" d="M237 183l-167 -214l-86 63l193 214l-131 208l107 60l104 -197l150 196l83 -51l-181 -211l151 -220l-100 -64z" />
<glyph unicode="y" horiz-adv-x="480" d="M77 -196q-28 0 -94 24l42 95q35 -20 68 -20q51 -1 99 129l-135 441l117 30l79 -366l147 364l98 -25l-257 -554q-23 -47 -61 -79q-47 -39 -103 -39z" />
<glyph unicode="z" horiz-adv-x="482" d="M35 77l232 278q11 15 45 53h-233l9 86h365l-8 -80l-216 -262l-48 -60h242l-10 -92h-386z" />
<glyph unicode="{" horiz-adv-x="536" d="M375 725q-32 0 -43.5 -19.5t-19.5 -91.5q-3 -25 -5 -69t-3 -58q-8 -75 -89 -148l-1 -7q64 -65 64 -162q0 -12 -1 -24q-2 -22 -11.5 -78.5t-12.5 -77.5q-5 -55 -3 -65q3 -15 22 -15q43 0 73 25l17 -119q-49 -16 -104 -13q-119 7 -119 157q0 33 7 101q1 14 7.5 53.5 t8.5 62.5q8 75 -51 133l7 55q40 42 50 55q23 32 27 70q3 24 5 68t4 63q22 213 180 213q26 0 85 -15l-32 -112q-49 18 -62 18z" />
<glyph unicode="|" horiz-adv-x="229" d="M113 686h128l-96 -906h-128z" />
<glyph unicode="}" horiz-adv-x="536" d="M342 61q-13 -118 -35 -168q-38 -85 -130 -90q-57 -3 -102 13l42 119q25 -25 68 -25q17 0 22.5 8.5t8.5 32.5l4 39q3 21 5.5 77.5t4.5 78.5q6 57 39 112q27 45 62 74l1 7q-65 73 -57 148q1 14 13 93q9 56 9 93q0 32 -9.5 42t-33.5 10q-13 0 -66 -18l-8 112q61 15 87 15 q138 0 138 -166q0 -22 -2 -47q-2 -19 -9 -63t-10 -68q-4 -38 12 -70q7 -13 39 -55l-5 -55q-71 -58 -79 -133q-2 -23 -5 -63z" />
<glyph unicode="~" horiz-adv-x="395" d="M206 403q-23 17 -33 17q-13 0 -27 -13q-9 -8 -44 -47l-19 93q49 44 100 44q33 0 63 -18t35 -18q11 -1 33 20q11 12 23 23l16 -87q-49 -38 -88 -38q-26 0 -59 24z" />
<glyph unicode="&#xa1;" horiz-adv-x="235" d="M192 501l-64 -604h-124l64 604h124zM227 649q-3 -32 -28 -55t-58 -23q-31 0 -51.5 23t-17.5 55q4 32 29 54.5t57 22.5t52.5 -22.5t16.5 -54.5z" />
<glyph unicode="&#xa2;" horiz-adv-x="479" d="M37 242q12 113 71 183q50 61 127 80l9 85h118l-9 -84q51 -12 105 -59l-57 -76q-47 41 -60 49q-24 16 -53 16q-61 0 -102 -86q-34 -71 -34 -141q0 -63 28 -102.5t67 -39.5q30 0 62 19q23 13 70 54l51 -71q-65 -61 -131 -79l-9 -79h-118l9 78q-83 19 -119 93 q-27 53 -27 126q0 18 2 34z" />
<glyph unicode="&#xa3;" horiz-adv-x="476" d="M262 26q-47 0 -225 -44l-5 100q18 4 37 9q23 6 34 16q27 25 32 72q7 63 3 114h-67l10 93h54q-4 54 -1 81q8 80 55 132q51 57 132 57q61 0 127 -41l-52 -81q-65 34 -79 34q-31 0 -55.5 -32.5t-28.5 -72.5q-1 -15 4 -77h126l-10 -93h-106q0 -43 -6 -97q-5 -46 -40 -82 q38 5 85 5q61 0 136 -21l-33 -110q-13 4 -70 25q-35 13 -57 13z" />
<glyph unicode="&#xa4;" horiz-adv-x="489" d="M247 349l-5 -45h162l-8 -78h-162l-12 -117l175 1l-12 -110h-292l24 226h-91l8 78h91l5 46h-91l9 87h91l22 203h295l-11 -105h-178l-11 -98h162l-9 -88h-162z" />
<glyph unicode="&#xa5;" horiz-adv-x="531" d="M189 287l-134 354h124l86 -225l134 225h124l-209 -354h76l-8 -83h-79l-5 -49h79l-9 -83h-79l-8 -70h-119l8 70h-82l9 83h82l5 49h-82l8 83h79z" />
<glyph unicode="&#xa6;" horiz-adv-x="182" d="M54 278h77v-296h-77v296zM54 656h77v-296h-77v296z" />
<glyph unicode="&#xa7;" horiz-adv-x="392" d="M28 -23l57 79q40 -53 86 -53q17 0 30 12.5t14 22.5q2 17 -12 24q-3 2 -28 9q-18 4 -50 16q-63 25 -56 96q6 50 38 84q-26 27 -21 73q6 62 50 97q38 30 86 29q49 -1 111 -44l-42 -81q-55 40 -80 40q-21 0 -27.5 -6.5t-9.5 -28.5q-1 -11 64 -26q93 -31 85 -113 q-6 -52 -35 -84q23 -27 18 -73q-6 -67 -52 -104q-41 -33 -97 -33q-73 0 -129 64zM158 189q-1 -7 32 -17l20 -6q20 13 22 29q1 16 -13 24q-5 3 -33 11q-24 -4 -28 -41z" />
<glyph unicode="&#xa8;" horiz-adv-x="306" d="M185 628q3 27 21 47q22 25 57 25q33 0 50 -25q15 -21 12 -47q-3 -27 -22 -48q-23 -24 -56 -24t-50 24q-15 20 -12 48zM-25 628q3 26 22 47q22 25 56 25q33 0 50 -25q15 -21 12 -47q-3 -27 -22 -48q-22 -24 -56 -24q-33 0 -50 24q-15 20 -12 48z" />
<glyph unicode="&#xa9;" horiz-adv-x="796" d="M396 102q-87 0 -136 67q-43 59 -43 149q0 85 44 144q50 67 137 68q60 0 121 -35l-24 -51q-59 36 -94 36q-64 0 -99 -61q-27 -48 -27 -109q0 -68 35 -112.5t86 -44.5q53 0 102 28l25 -42q-70 -37 -127 -37zM132 316q0 -110 78 -188t188 -78t188 78t78 188t-78 188t-188 78 t-188 -78t-78 -188zM67 316q0 137 97 234t234 97t234 -97t97 -234t-97 -234t-234 -97t-234 97t-97 234z" />
<glyph unicode="&#xab;" horiz-adv-x="390" d="M419 126l-107 -4l-156 167l156 162l107 -4l-131 -161zM261 126l-107 -4l-155 167l155 162l107 -4l-130 -161z" />
<glyph unicode="&#xac;" horiz-adv-x="613" d="M443 225h-355v118h470v-315h-115v197z" />
<glyph unicode="&#xad;" horiz-adv-x="498" d="M52 348h394v-63h-394v63z" />
<glyph unicode="&#xae;" horiz-adv-x="796" d="M133 316h-1q0 -110 78 -188t188 -78t188 78t78 188t-78 188t-188 78t-187.5 -78t-77.5 -188zM67 316q0 137 97 234t234 97t234 -97t97 -234t-97 -234t-234 -97t-234 97t-97 234zM491 108q-34 34 -76 94q-27 39 -63 98l-29 -1v-185h-57v410q97 2 129 2q112 -1 111 -113 q-1 -91 -98 -109l69 -93q24 -31 85 -90zM379 487l-56 -1v-144h42q51 0 72 20q17 18 17 58q0 68 -75 67z" />
<glyph unicode="&#xaf;" horiz-adv-x="406" d="M108 659h234l-6 -65h-234z" />
<glyph unicode="&#xb0;" horiz-adv-x="273" d="M278 582q-6 -58 -50.5 -99t-104.5 -41t-97 41t-31 99t51.5 99t106.5 41q60 0 95.5 -41t29.5 -99zM68 582q-3 -30 14.5 -50t48.5 -20q29 0 50 20t24 50t-13.5 50t-46.5 20t-52 -20t-25 -50z" />
<glyph unicode="&#xb1;" horiz-adv-x="501" d="M295 89h-93v171h-150v95h150v162h93v-162h151v-95h-151v-171zM65 49h376v-87h-376v87z" />
<glyph unicode="&#xb4;" horiz-adv-x="329" d="M46 626l224 89l24 -78l-222 -83z" />
<glyph unicode="&#xb5;" horiz-adv-x="508" d="M335 29l-10 -10q-52 -51 -99 -51q-39 0 -71 22l-20 -186h-103l72 682h103l-36 -342q-8 -73 81 -73q28 0 56 27.5t30 50.5l36 338h110l-39 -370q-8 -68 18 -86q18 -13 38 -38l-91 -65q-61 38 -75 101z" />
<glyph unicode="&#xb6;" horiz-adv-x="507" d="M338 0v642h99v-642h-99zM211 0v317q-162 0 -161 166q0 86 41 124q38 35 118 35h101v-642h-99z" />
<glyph unicode="&#xb7;" horiz-adv-x="236" d="M41 413q4 40 32.5 69.5t64.5 29.5q37 0 58.5 -29t17.5 -70q-4 -40 -32 -69.5t-64 -29.5q-37 0 -59 29.5t-18 69.5z" />
<glyph unicode="&#xb8;" horiz-adv-x="205" d="M5 -176l44 29q26 -35 55 -35q8 0 17.5 15.5t10.5 24.5q2 13 -4.5 24.5t-12.5 11.5q-29 0 -38 -16l-55 17l18 109l80 1l-7 -41h3q42 0 64 -31q19 -27 16 -63q-4 -39 -26 -70q-28 -39 -73 -39q-71 0 -92 63z" />
<glyph unicode="&#xbb;" horiz-adv-x="393" d="M141 126l132 160l-132 161l109 4l154 -162l-154 -167zM-17 126l132 160l-131 161l108 4l154 -162l-154 -167z" />
<glyph unicode="&#xbf;" horiz-adv-x="459" d="M171 333q19 57 20 156h107q1 -19 1 -38q0 -192 -102 -278q-47 -40 -48 -40q-27 -27 -30 -53q-4 -36 14.5 -56t49.5 -20q72 0 116 105l90 -50q-42 -84 -90 -122q-52 -40 -123 -40q-84 0 -130 60q-41 54 -34 124q11 102 93 160q45 32 66 92zM329 608q-4 -31 -26.5 -52.5 t-51.5 -21.5t-48 21.5t-15 52.5q3 30 26 51.5t52 21.5q30 0 48 -21t15 -52z" />
<glyph unicode="&#xc0;" horiz-adv-x="580" d="M351 168h-181l-73 -180l-111 14l275 652h102l143 -647l-118 -19zM207 261h127l-40 222zM394 686l-200 90l54 65l200 -96z" />
<glyph unicode="&#xc1;" horiz-adv-x="568" d="M351 168h-181l-73 -180l-111 14l275 652h102l143 -647l-118 -19zM207 261h127l-39 222zM181 746l225 89l53 -78l-222 -83z" />
<glyph unicode="&#xc2;" horiz-adv-x="568" d="M350 168h-181l-73 -180l-112 14l276 652h102l143 -647l-118 -19zM206 261h127l-40 222zM171 661l10 98l148 106l131 -106l-10 -97l-132 87z" />
<glyph unicode="&#xc3;" horiz-adv-x="580" d="M352 168h-181l-73 -180l-112 14l276 652h102l143 -647l-118 -19zM208 261h127l-40 222zM312 719q-34 23 -42 23q-25 0 -71 -47l-30 78q44 50 110 52q31 1 66.5 -26t45.5 -27q14 0 55 31l29 -76q-18 -16 -46.5 -27t-43.5 -11q-30 0 -73 30z" />
<glyph unicode="&#xc4;" horiz-adv-x="580" d="M352 168h-181l-73 -180l-112 14l276 652h102l143 -647l-118 -19zM207 261h127l-39 222zM363 758q2 27 21 47q22 25 56 25q33 0 50 -25q15 -21 13 -47q-3 -27 -23 -48q-22 -24 -55 -24q-34 0 -51 24q-14 20 -11 48zM153 758q2 27 21 47q22 25 56 25q33 0 51 -25 q14 -21 12 -47q-3 -27 -23 -48q-22 -24 -55 -24q-34 0 -51 24q-14 20 -11 48z" />
<glyph unicode="&#xc5;" horiz-adv-x="580" d="M350 168h-181l-73 -180l-111 14l275 652h102l143 -647l-118 -19zM206 261h127l-40 222zM321 686q-41 0 -63.5 24.5t-18.5 62.5q4 37 32 61.5t68 24.5t63 -24.5t19 -61.5q-4 -38 -32 -62.5t-68 -24.5zM334 816q-33 0 -37 -43q-5 -44 28 -44t38 44q4 43 -29 43z" />
<glyph unicode="&#xc6;" horiz-adv-x="862" d="M222 271h124l-40 222zM572 391h240l-10 -99h-240l-20 -193h254l-11 -100h-385l-35 169h-186l-74 -180l-116 14l283 652h104l65 -344l35 331h380l-10 -96h-257z" />
<glyph unicode="&#xc7;" horiz-adv-x="570" d="M302 -219q-65 0 -82 48l40 34q25 -32 48 -32q35 0 39 34q4 39 -29 39q-14 0 -37 -15l-44 21l14 84q-103 13 -157 98q-48 75 -48 186q0 149 81 259q89 122 234 123q91 1 193 -63l-63 -109l-63 45q-40 26 -72 26q-82 0 -136 -85q-45 -69 -54 -156q-2 -18 -2 -35 q0 -83 38.5 -135.5t96.5 -52.5q53 0 161 57l45 -94q-72 -37 -105 -48q-43 -16 -92 -18l-7 -39q10 4 25 4q42 0 65 -29q20 -25 16 -60t-30 -60q-29 -27 -75 -27z" />
<glyph unicode="&#xc8;" horiz-adv-x="489" d="M182 391h226l-11 -99l-225 1l-20 -184l240 1l-11 -110h-357l67 640h359l-11 -105h-242zM362 686l-199 90l53 65l201 -96z" />
<glyph unicode="&#xc9;" horiz-adv-x="469" d="M182 391h226l-11 -99l-226 1l-19 -184l240 1l-11 -110h-357l67 640h359l-11 -105h-242zM151 756l223 89l54 -78l-223 -83z" />
<glyph unicode="&#xca;" horiz-adv-x="489" d="M180 391h226l-10 -99l-226 1l-20 -184l241 1l-12 -110h-357l67 640h359l-11 -105h-242zM151 681l9 88l149 106l131 -106l-9 -87l-134 77z" />
<glyph unicode="&#xcb;" horiz-adv-x="489" d="M182 391h226l-10 -99l-226 1l-19 -184l240 1l-12 -110h-357l68 640h359l-11 -105h-242zM331 758q3 26 22 47q22 25 56 25q33 0 50 -25q15 -21 12 -47q-3 -27 -22 -48q-22 -24 -56 -24q-33 0 -50 24q-15 20 -12 48zM122 758q3 27 21 47q22 25 57 25q32 0 49 -25 q15 -21 12 -47q-3 -27 -22 -48q-22 -24 -55 -24q-34 0 -51 24q-14 20 -11 48z" />
<glyph unicode="&#xcc;" horiz-adv-x="215" d="M71 642h129l-67 -642h-129zM226 686l-200 90l54 65l200 -96z" />
<glyph unicode="&#xcd;" horiz-adv-x="215" d="M72 642h129l-68 -642h-129zM14 746l224 89l54 -78l-223 -83z" />
<glyph unicode="&#xce;" horiz-adv-x="215" d="M63 642h129l-67 -642h-129zM-5 681l9 88l149 106l131 -106l-9 -87l-134 77z" />
<glyph unicode="&#xcf;" horiz-adv-x="215" d="M72 642h129l-67 -642h-129zM184 748q2 26 21 47q22 25 56 25q33 0 50 -25q15 -21 13 -47q-3 -27 -23 -48q-22 -24 -55 -24q-34 0 -51 24q-14 20 -11 48zM-25 748q2 27 21 47q22 25 56 25q32 0 50 -25q14 -21 12 -47q-3 -27 -22 -48q-22 -24 -55 -24q-35 0 -51 24 q-14 20 -11 48z" />
<glyph unicode="&#xd0;" horiz-adv-x="565" d="M245 353l-11 -102h-63l-15 -144h64q79 0 131 63q46 57 55 143q4 34 4 62q0 174 -148 174h-28q-20 -1 -31 -1l-21 -195h63zM62 353l31 290q81 4 154 4q146 0 217.5 -62t71.5 -199q0 -30 -3 -63q-15 -153 -102 -237q-91 -88 -246 -88q-25 0 -71.5 2t-88.5 2l26 249h-53 l11 102h53z" />
<glyph unicode="&#xd1;" horiz-adv-x="570" d="M182 395l-42 -394l-113 -2l68 645h96l207 -385l40 381h112l-65 -625l-89 -30q-62 142 -214 410zM331 689q-33 23 -41 23q-26 0 -71 -47l-31 78q45 50 111 52q30 1 66 -26t46 -27q13 0 54 31l29 -76q-17 -16 -48 -28q-27 -10 -42 -10q-29 0 -73 30z" />
<glyph unicode="&#xd2;" horiz-adv-x="644" d="M27 322q15 140 107.5 232t221.5 92q116 0 185.5 -78t69.5 -201q0 -22 -3 -45q-16 -159 -112 -251q-90 -87 -217 -87q-114 0 -184 74.5t-70 208.5q0 27 2 55zM140 281q0 -84 42 -140.5t107 -56.5q90 0 151 89q55 80 55 173q0 86 -42 144t-110 58q-89 0 -150 -92 q-53 -81 -53 -175zM437 686l-200 90l54 65l200 -96z" />
<glyph unicode="&#xd3;" horiz-adv-x="644" d="M28 322q15 140 107 232t221 92q117 0 186 -78t69 -201q0 -22 -2 -45q-17 -159 -112 -251q-90 -87 -218 -87q-114 0 -182 73q-72 76 -72 210q0 27 3 55zM140 281q0 -84 42.5 -140.5t107.5 -56.5q89 0 150 89q56 80 56 173q0 86 -42 144t-110 58q-90 0 -150 -92 q-54 -81 -54 -175zM224 746l225 89l54 -78l-223 -83z" />
<glyph unicode="&#xd4;" horiz-adv-x="644" d="M26 322q15 140 107.5 232t220.5 92q117 0 186.5 -78t69.5 -201q0 -22 -3 -45q-16 -159 -112 -251q-90 -87 -217 -87q-114 0 -183 73q-72 76 -72 210q0 27 3 55zM139 281q0 -84 42 -140.5t107 -56.5q90 0 151 89q55 80 55 173q0 86 -42 144t-110 58q-90 0 -150 -92 q-53 -81 -53 -175zM220 661l10 98l149 106l131 -106l-10 -97l-133 87z" />
<glyph unicode="&#xd5;" horiz-adv-x="648" d="M29 322q15 140 107.5 232t220.5 92q117 0 186.5 -78t69.5 -201q0 -22 -3 -45q-16 -159 -112 -251q-90 -87 -217 -87q-114 0 -183 73q-72 76 -72 210q0 27 3 55zM142 281q0 -84 42 -140.5t107 -56.5q90 0 151 89q55 80 55 173q0 86 -42 144t-110 58q-90 0 -150 -92 q-53 -81 -53 -175zM332 699q-33 23 -42 23q-25 0 -71 -47l-30 78q44 50 110 52q31 1 66.5 -26t46.5 -27q13 0 54 31l29 -76q-18 -16 -46.5 -27t-43.5 -11q-29 0 -73 30z" />
<glyph unicode="&#xd6;" horiz-adv-x="648" d="M29 322q14 140 106.5 232t221.5 92q116 0 185.5 -78t69.5 -201q0 -22 -2 -45q-17 -159 -113 -251q-90 -87 -217 -87q-114 0 -184 74.5t-70 208.5q0 27 3 55zM141 281q0 -84 42.5 -140.5t107.5 -56.5q89 0 150 89q55 80 55 173q0 86 -42 144t-110 58q-89 0 -150 -92 q-53 -81 -53 -175zM405 748q3 27 22 47q22 25 56 25q32 0 50 -25q15 -21 12 -47q-2 -27 -22 -48q-23 -24 -55 -24q-35 0 -51 24q-15 20 -12 48zM195 748q3 27 22 47q22 25 56 25q33 0 50 -25q15 -21 12 -47q-3 -27 -22 -48q-22 -24 -55 -24q-34 0 -51 24q-15 20 -12 48z" />
<glyph unicode="&#xd8;" horiz-adv-x="644" d="M34 322q14 140 106.5 232t221.5 92q21 0 40 -3l18 44l105 -34l-20 -49q112 -74 112 -237q0 -22 -2 -45q-17 -159 -113 -251q-90 -87 -217 -87q-11 0 -31 2l-24 -60l-105 34l24 59q-118 72 -118 248q0 27 3 55zM295 84h1q89 0 150 89q55 80 55 173q0 87 -42 144zM146 281 q0 -90 49 -149l168 415q-5 1 -14 1q-90 0 -150 -91q-53 -81 -53 -176z" />
<glyph unicode="&#xd9;" horiz-adv-x="571" d="M238 -17q-83 0 -134 49q-57 55 -57 159q0 21 2 44l43 405h119l-43 -405q-2 -19 -2 -37q0 -117 84 -117q44 0 77 34q40 41 48 120l43 405h119l-43 -405q-13 -126 -94 -194q-69 -58 -162 -58zM395 686l-200 90l54 65l200 -96z" />
<glyph unicode="&#xda;" horiz-adv-x="571" d="M238 -17q-83 0 -133 49q-58 55 -58 159q0 21 3 44l42 405h119l-42 -405q-2 -19 -2 -37q0 -117 84 -117q44 0 77 34q39 41 48 120l42 405h119l-42 -405q-14 -126 -94 -194q-69 -58 -163 -58zM182 746l225 89l54 -78l-223 -83z" />
<glyph unicode="&#xdb;" horiz-adv-x="571" d="M237 -17q-83 0 -134 49q-57 55 -57 159q0 21 2 44l43 405h119l-43 -405q-2 -19 -2 -37q0 -117 84 -117q44 0 77 34q40 41 48 120l43 405h119l-43 -405q-13 -126 -94 -194q-69 -58 -162 -58zM171 671l9 88l149 106l131 -106l-9 -87l-134 77z" />
<glyph unicode="&#xdc;" horiz-adv-x="521" d="M239 -17q-83 0 -134 49q-57 55 -57 159q0 21 3 44l42 405h119l-42 -405q-3 -19 -3 -37q0 -117 84 -117q44 0 78 34q39 41 48 120l42 405h119l-42 -405q-14 -126 -95 -194q-69 -58 -162 -58zM352 748q3 26 22 47q22 25 56 25q33 0 50 -25q15 -21 12 -47q-2 -27 -22 -48 q-22 -24 -55 -24q-34 0 -51 24q-14 20 -12 48zM143 748q3 27 22 47q22 25 56 25q32 0 50 -25q14 -21 11 -47q-2 -27 -22 -48q-22 -24 -54 -24q-35 0 -51 24q-15 20 -12 48z" />
<glyph unicode="&#xdd;" horiz-adv-x="503" d="M275 0h-119l28 271l-134 350l113 33l94 -279l150 279l103 -33l-207 -350zM169 696l223 89l54 -78l-223 -83z" />
<glyph unicode="&#xde;" horiz-adv-x="543" d="M162 180l-30 -288h-114l84 808h114l-8 -81q71 58 109 58q93 0 145 -73q45 -64 45 -161q0 -18 -1 -36q-14 -141 -86 -212q-62 -62 -158 -62q-26 -1 -51 15zM196 510l-24 -230q13 -22 40 -38t55 -16q62 0 96 74q27 57 27 129q0 63 -23 102q-26 45 -78 45q-53 0 -93 -66z " />
<glyph unicode="&#xdf;" horiz-adv-x="549" d="M148 61l58 79q25 -41 53 -52q13 -5 47 -5q27 0 46 23q15 18 18 43q3 32 -29 51q-11 6 -57 22q-97 33 -97 135q0 11 1 22q4 40 44 85q47 53 103 53q22 0 44 -9q4 7 5 27q1 14 1 28q3 23 -27 37.5t-69 14.5q-40 0 -73 -33t-38 -82l-53 -501h-110l53 501q10 93 68 151 q64 64 168 64q82 0 126.5 -43t44.5 -118q0 -13 -1 -27q-7 -67 -48 -126q-56 22 -81 22q-45 0 -50 -49q-2 -18 19 -29q6 -3 52 -18q76 -25 103 -78q19 -37 14 -94q-8 -71 -65.5 -120.5t-126.5 -49.5q-57 0 -79 11q-26 13 -64 65z" />
<glyph unicode="&#xe0;" horiz-adv-x="491" d="M403 626l-206 89l-70 -78l205 -83zM296 223q-30 0 -74 -8q-48 -8 -65 -19q-26 -15 -31 -59q-3 -28 13 -49.5t40 -21.5q60 0 105 48zM289 54q-46 -37 -63 -48q-36 -22 -69 -22q-55 0 -92 35t-37 96q0 10 1 21q9 83 61 118q33 21 126 39q47 9 86 13l6 52q2 22 -14 41.5 t-40 19.5q-91 0 -155 -68l-37 61q32 45 97 74q57 26 105 26q71 0 114.5 -46t36.5 -117l-27 -251q0 -6 6.5 -14t14.5 -8q32 0 43 10l4 -64q-65 -33 -101 -33q-16 0 -37 18q-25 21 -29 47z" />
<glyph unicode="&#xe1;" horiz-adv-x="491" d="M155 626l224 89l54 -78l-223 -83zM296 223q-30 0 -74 -8q-48 -8 -65 -19q-26 -15 -31 -59q-3 -28 13 -49.5t40 -21.5q60 0 105 48zM289 54q-46 -37 -63 -48q-36 -22 -69 -22q-55 0 -92 35t-37 96q0 10 1 21q9 83 61 118q33 21 126 39q47 9 86 13l6 52q2 22 -14 41.5 t-40 19.5q-91 0 -155 -68l-37 61q32 45 97 74q57 26 105 26q71 0 114.5 -46t36.5 -117l-27 -251q0 -6 6.5 -14t14.5 -8q32 0 43 10l4 -64q-65 -33 -101 -33q-16 0 -37 18q-25 21 -29 47z" />
<glyph unicode="&#xe2;" horiz-adv-x="491" d="M133 521l9 88l149 106l131 -106l-9 -87l-134 77zM296 223q-30 0 -74 -8q-48 -8 -65 -19q-26 -15 -31 -59q-3 -28 13 -49.5t40 -21.5q60 0 105 48zM289 54q-46 -37 -63 -48q-36 -22 -69 -22q-55 0 -92 35t-37 96q0 10 1 21q9 83 61 118q33 21 126 39q47 9 86 13l6 52 q2 22 -14 41.5t-40 19.5q-91 0 -155 -68l-37 61q32 45 97 74q57 26 105 26q71 0 114.5 -46t36.5 -117l-27 -251q0 -6 6.5 -14t14.5 -8q32 0 43 10l4 -64q-65 -33 -101 -33q-16 0 -37 18q-25 21 -29 47z" />
<glyph unicode="&#xe3;" horiz-adv-x="491" d="M253 579q-32 23 -42 23q-25 0 -71 -47l-32 78q45 50 111 52q30 1 66.5 -26t46.5 -27q13 0 54 31l30 -76q-18 -16 -49 -28q-27 -10 -41 -10q-31 0 -73 30zM296 223q-30 0 -74 -8q-48 -8 -65 -19q-26 -15 -31 -59q-3 -28 13 -49.5t40 -21.5q60 0 105 48zM289 54 q-46 -37 -63 -48q-36 -22 -69 -22q-55 0 -92 35t-37 96q0 10 1 21q9 83 61 118q33 21 126 39q47 9 86 13l6 52q2 22 -14 41.5t-40 19.5q-91 0 -155 -68l-37 61q32 45 97 74q57 26 105 26q71 0 114.5 -46t36.5 -117l-27 -251q0 -6 6.5 -14t14.5 -8q32 0 43 10l4 -64 q-65 -33 -101 -33q-16 0 -37 18q-25 21 -29 47z" />
<glyph unicode="&#xe4;" horiz-adv-x="491" d="M313 598q3 27 22 47q22 25 56 25q32 0 50 -25q15 -21 12 -47q-2 -27 -22 -48q-22 -24 -55 -24q-35 0 -51 24q-14 20 -12 48zM103 598q3 27 22 47q22 25 56 25q33 0 50 -25q15 -21 12 -47q-2 -27 -22 -48q-22 -24 -55 -24q-34 0 -51 24q-14 20 -12 48zM296 223 q-30 0 -74 -8q-48 -8 -65 -19q-26 -15 -31 -59q-3 -28 13 -49.5t40 -21.5q60 0 105 48zM289 54q-46 -37 -63 -48q-36 -22 -69 -22q-55 0 -92 35t-37 96q0 10 1 21q9 83 61 118q33 21 126 39q47 9 86 13l6 52q2 22 -14 41.5t-40 19.5q-91 0 -155 -68l-37 61q32 45 97 74 q57 26 105 26q71 0 114.5 -46t36.5 -117l-27 -251q0 -6 6.5 -14t14.5 -8q32 0 43 10l4 -64q-65 -33 -101 -33q-16 0 -37 18q-25 21 -29 47z" />
<glyph unicode="&#xe5;" horiz-adv-x="491" d="M261 566q-40 0 -62 24.5t-18 62.5q4 37 31.5 61.5t67.5 24.5t63 -24.5t19 -61.5q-4 -38 -32 -62.5t-69 -24.5zM275 696q-32 0 -36 -43q-5 -44 27 -44q33 0 38 44q4 43 -29 43zM296 223q-30 0 -74 -8q-48 -8 -65 -19q-26 -15 -31 -59q-3 -28 13 -49.5t40 -21.5 q60 0 105 48zM289 54q-46 -37 -63 -48q-36 -22 -69 -22q-55 0 -92 35t-37 96q0 10 1 21q9 83 61 118q33 21 126 39q47 9 86 13l6 52q2 22 -14 41.5t-40 19.5q-91 0 -155 -68l-37 61q32 45 97 74q57 26 105 26q71 0 114.5 -46t36.5 -117l-27 -251q0 -6 6.5 -14t14.5 -8 q32 0 43 10l4 -64q-65 -33 -101 -33q-16 0 -37 18q-25 21 -29 47z" />
<glyph unicode="&#xe6;" horiz-adv-x="775" d="M560 429q-54 0 -82 -27q-21 -20 -43 -77h188v1q2 13 2 25q0 78 -65 78zM254 -1q-41 -15 -92 -15q-57 0 -94 34q-40 36 -40 98q0 10 1 20q9 83 64 121q35 24 129 46q40 9 89 16l5 39q2 21 -14.5 36t-41.5 15q-46 0 -137 -68l-53 81q45 37 109 65q60 25 92 25q90 0 133 -66 q70 61 170 61q71 0 115 -46.5t44 -126.5q0 -15 -1 -30l-7 -65h-300q-2 -19 -2 -37q0 -134 109 -134q54 0 121 78l47 -71q-79 -87 -183 -87q-114 0 -168 70q-57 -46 -95 -59zM246 205q-55 -10 -70 -16q-36 -16 -41 -55q-6 -54 48 -54q33 0 65 13q42 18 45 47l7 74z" />
<glyph unicode="&#xe7;" horiz-adv-x="483" d="M363 -132q-4 -35 -32 -61t-74 -26q-64 0 -81 48l40 34q25 -32 47 -32q36 0 39 34q5 39 -29 39q-15 0 -36 -15l-45 21l13 82h4q-90 16 -132 94q-29 55 -29 129q0 15 1 27q14 134 99 207q72 63 165 62q58 0 146 -64l-41 -69q-59 53 -122 53t-101 -84q-31 -68 -31 -141 q0 -63 27.5 -101t73.5 -38q58 0 136 64l39 -59q-78 -80 -174 -84h-4l-6 -35q9 4 25 4q42 0 65 -29q20 -25 17 -60zM262 -12l-6 -35q9 4 25 4q42 0 65 -29q20 -25 17 -60q-4 -35 -32 -61t-74 -26q-64 0 -81 48l40 34q25 -32 47 -32q36 0 39 34q5 39 -29 39q-15 0 -36 -15 l-45 21l14 82z" />
<glyph unicode="&#xe8;" horiz-adv-x="497" d="M433 626l-206 89l-50 -78l205 -83zM256 68q65 -1 137 63l38 -61q-57 -50 -95.5 -66t-94.5 -16q-117 0 -168 86q-36 59 -36 144q0 16 2 29q12 113 79 186q72 77 181 77q69 0 114 -43q49 -47 49 -126q0 -14 -1 -28l-8 -75h-296q-2 -24 -2 -43q0 -126 101 -127zM353 323 q2 15 2 28q0 81 -71 81q-33 0 -63 -26q-33 -30 -48 -83h180z" />
<glyph unicode="&#xe9;" horiz-adv-x="497" d="M155 626l224 89l24 -78l-223 -83zM256 68q65 -1 137 63l38 -61q-57 -50 -95.5 -66t-94.5 -16q-117 0 -168 86q-36 59 -36 144q0 16 2 29q12 113 79 186q72 77 181 77q69 0 114 -43q49 -47 49 -126q0 -14 -1 -28l-8 -75h-296q-2 -24 -2 -43q0 -126 101 -127zM353 323 q2 15 2 28q0 81 -71 81q-33 0 -63 -26q-33 -30 -48 -83h180z" />
<glyph unicode="&#xea;" horiz-adv-x="497" d="M155 561l9 88l149 106l131 -106l-9 -87l-134 77zM256 68q65 -1 137 63l38 -61q-57 -50 -95.5 -66t-94.5 -16q-117 0 -168 86q-36 59 -36 144q0 16 2 29q12 113 79 186q72 77 181 77q69 0 114 -43q49 -47 49 -126q0 -14 -1 -28l-8 -75h-296q-2 -24 -2 -43q0 -126 101 -127 zM353 323q2 15 2 28q0 81 -71 81q-33 0 -63 -26q-33 -30 -48 -83h180z" />
<glyph unicode="&#xeb;" horiz-adv-x="497" d="M285 628q3 27 21 47q22 25 57 25q33 0 50 -25q15 -21 12 -47q-3 -27 -22 -48q-23 -24 -56 -24t-50 24q-15 20 -12 48zM75 628q3 26 22 47q22 25 56 25q33 0 50 -25q15 -21 12 -47q-3 -27 -22 -48q-22 -24 -56 -24q-33 0 -50 24q-15 20 -12 48zM256 68q65 -1 137 63 l38 -61q-57 -50 -95.5 -66t-94.5 -16q-117 0 -168 86q-36 59 -36 144q0 16 2 29q12 113 79 186q72 77 181 77q69 0 114 -43q49 -47 49 -126q0 -14 -1 -28l-8 -75h-296q-2 -24 -2 -43q0 -126 101 -127zM353 323q2 15 2 28q0 81 -71 81q-33 0 -63 -26q-33 -30 -48 -83h180z " />
<glyph unicode="&#xec;" horiz-adv-x="249" d="M89 495h107l-52 -495h-107zM263 626l-206 89l-70 -78l206 -83z" />
<glyph unicode="&#xed;" horiz-adv-x="234" d="M18 626l224 89l33 -78l-222 -83zM77 495h107l-52 -495h-107z" />
<glyph unicode="&#xee;" horiz-adv-x="210" d="M89 495h107l-52 -495h-107zM-35 521l9 88l149 106l131 -106l-9 -87l-134 77z" />
<glyph unicode="&#xef;" horiz-adv-x="207" d="M78 495h107l-52 -495h-107zM155 628q3 27 21 47q22 25 57 25q33 0 50 -25q15 -21 12 -47q-3 -27 -22 -48q-23 -24 -56 -24t-50 24q-15 20 -12 48zM-55 628q3 26 22 47q22 25 56 25q33 0 50 -25q15 -21 12 -47q-3 -27 -22 -48q-22 -24 -56 -24q-33 0 -50 24q-15 20 -12 48 z" />
<glyph unicode="&#xf0;" horiz-adv-x="579" d="M290 448q-70 0 -112 -80q-36 -66 -36 -142q0 -66 30 -116q32 -54 79 -54q64 0 104 60q35 52 44 132q11 98 11 97q-64 103 -120 103zM318 619q-11 20 -49 64l81 53q52 -58 86 -117h134l-7 -73h-75q31 -90 31 -219q0 -28 -2 -48q-35 -296 -294 -296q-96 0 -151 74 q-49 65 -49 160q0 130 73 215q76 89 204 89q26 0 104 -57q2 22 -17 51l-24 31h-140l7 73h88z" />
<glyph unicode="&#xf1;" horiz-adv-x="486" d="M273 579q-32 23 -42 23q-25 0 -71 -47l-31 78q44 50 110 52q31 1 67 -26t46 -27q13 0 54 31l30 -76q-18 -16 -46.5 -27t-43.5 -11q-31 0 -73 30zM349 320q1 13 1 24q0 77 -48 77q-36 0 -80 -42.5t-47 -75.5l-32 -303h-107l52 496h107l-9 -89q71 104 134 104q58 0 98 -43 t40 -113q0 -11 -1 -23l-35 -332h-107z" />
<glyph unicode="&#xf2;" horiz-adv-x="543" d="M409 556l-200 90l54 65l200 -96zM39 252q14 128 102 200q73 60 162 60q81 0 139 -51q67 -61 67 -170q0 -19 -2 -39q-9 -88 -62 -161q-73 -102 -197 -102q-120 0 -173 80q-38 58 -38 146q0 19 2 37zM153 215q0 -63 24 -103q26 -45 75 -45q68 0 108 78q33 64 33 140 q0 63 -22 103q-26 45 -72 45q-71 0 -112 -77q-34 -64 -34 -141z" />
<glyph unicode="&#xf3;" horiz-adv-x="543" d="M197 626l224 89l54 -78l-223 -83zM39 252q14 128 102 200q73 60 162 60q81 0 139 -51q67 -61 67 -170q0 -19 -2 -39q-9 -88 -62 -161q-73 -102 -197 -102q-120 0 -173 80q-38 58 -38 146q0 19 2 37zM153 215q0 -63 24 -103q26 -45 75 -45q68 0 108 78q33 64 33 140 q0 63 -22 103q-26 45 -72 45q-71 0 -112 -77q-34 -64 -34 -141z" />
<glyph unicode="&#xf4;" horiz-adv-x="543" d="M163 521l9 88l149 106l131 -106l-9 -87l-134 77zM39 252q14 128 102 200q73 60 162 60q81 0 139 -51q67 -61 67 -170q0 -19 -2 -39q-9 -88 -62 -161q-73 -102 -197 -102q-120 0 -173 80q-38 58 -38 146q0 19 2 37zM153 215q0 -63 24 -103q26 -45 75 -45q68 0 108 78 q33 64 33 140q0 63 -22 103q-26 45 -72 45q-71 0 -112 -77q-34 -64 -34 -141z" />
<glyph unicode="&#xf5;" horiz-adv-x="543" d="M304 579q-33 23 -41 23q-26 0 -71 -47l-31 78q45 50 111 52q30 1 66 -26t46 -27q13 0 54 31l29 -76q-17 -16 -48 -28q-27 -10 -42 -10q-29 0 -73 30zM39 252q14 128 102 200q73 60 162 60q81 0 139 -51q67 -61 67 -170q0 -19 -2 -39q-9 -88 -62 -161q-73 -102 -197 -102 q-120 0 -173 80q-38 58 -38 146q0 19 2 37zM153 215q0 -63 24 -103q26 -45 75 -45q68 0 108 78q33 64 33 140q0 63 -22 103q-26 45 -72 45q-71 0 -112 -77q-34 -64 -34 -141z" />
<glyph unicode="&#xf6;" horiz-adv-x="543" d="M315 628q3 27 21 47q22 25 57 25q33 0 50 -25q15 -21 12 -47q-3 -27 -22 -48q-23 -24 -56 -24t-50 24q-15 20 -12 48zM105 628q3 26 22 47q22 25 56 25q33 0 50 -25q15 -21 12 -47q-3 -27 -22 -48q-22 -24 -56 -24q-33 0 -50 24q-15 20 -12 48zM39 252q14 128 102 200 q73 60 162 60q81 0 139 -51q67 -61 67 -170q0 -19 -2 -39q-9 -88 -62 -161q-73 -102 -197 -102q-120 0 -173 80q-38 58 -38 146q0 19 2 37zM153 215q0 -63 24 -103q26 -45 75 -45q68 0 108 78q33 64 33 140q0 63 -22 103q-26 45 -72 45q-71 0 -112 -77q-34 -64 -34 -141z " />
<glyph unicode="&#xf7;" horiz-adv-x="496" d="M190 480q0 33 21 56t51 23q31 0 52 -23t21 -56q0 -32 -21 -55t-52 -23q-30 0 -51 23t-21 55zM52 360h404v-100h-404v100zM190 142q0 32 21 55t51 23q31 0 52 -23t21 -55q0 -33 -21 -56t-52 -23q-30 0 -51 23t-21 56z" />
<glyph unicode="&#xf8;" horiz-adv-x="546" d="M447 549l-29 -71q91 -59 91 -187q0 -19 -2 -39q-9 -88 -62 -161q-74 -102 -198 -102q-18 0 -26 1l-26 -64l-103 34l26 65q-81 56 -81 190q0 19 2 37q13 128 101 200q74 60 163 60h11l29 71zM282 432q-54 -8 -89 -66q-32 -50 -39 -120q-6 -60 10 -107zM391 251 q7 72 -14 124l-125 -308q57 1 96 58q35 52 43 126z" />
<glyph unicode="&#xf9;" horiz-adv-x="482" d="M377 556l-199 90l53 65l201 -96zM324 0q-1 27 -3 71q-78 -89 -133 -89q-56 0 -95 43t-39 115q0 13 1 26l35 329h107l-34 -326q-2 -15 -2 -27q0 -67 44 -67q36 0 83 46q43 42 46 68l32 306h107l-52 -495h-97z" />
<glyph unicode="&#xfa;" horiz-adv-x="482" d="M155 626l225 89l53 -78l-222 -83zM324 0q-1 27 -3 71q-78 -89 -133 -89q-56 0 -95 43t-39 115q0 13 1 26l35 329h107l-34 -326q-2 -15 -2 -27q0 -67 44 -67q36 0 83 46q43 42 46 68l32 306h107l-52 -495h-97z" />
<glyph unicode="&#xfb;" horiz-adv-x="482" d="M143 521l9 88l150 106l130 -106l-9 -87l-134 77zM324 0q-1 27 -3 71q-78 -89 -133 -89q-56 0 -95 43t-39 115q0 13 1 26l35 329h107l-34 -326q-2 -15 -2 -27q0 -67 44 -67q36 0 83 46q43 42 46 68l32 306h107l-52 -495h-97z" />
<glyph unicode="&#xfc;" horiz-adv-x="482" d="M295 628q3 27 21 47q22 25 57 25q33 0 50 -25q15 -21 12 -47q-3 -27 -22 -48q-23 -24 -56 -24t-50 24q-15 20 -12 48zM85 628q3 26 22 47q22 25 56 25q33 0 50 -25q15 -21 12 -47q-3 -27 -22 -48q-22 -24 -56 -24q-33 0 -50 24q-15 20 -12 48zM324 0q-1 27 -3 71 q-78 -89 -133 -89q-56 0 -95 43t-39 115q0 13 1 26l35 329h107l-34 -326q-2 -15 -2 -27q0 -67 44 -67q36 0 83 46q43 42 46 68l32 306h107l-52 -495h-97z" />
<glyph unicode="&#xfe;" horiz-adv-x="522" d="M177 -4q-6 3 -25 17l-3 2l-22 -210h-113l92 880h113l-26 -253q48 42 60 50q37 26 65 26q88 0 136 -62q43 -56 43 -147q0 -18 -2 -36q-14 -143 -87 -216q-65 -65 -164 -65q-41 0 -67 14zM179 302l-20 -191q13 -13 42.5 -25.5t52.5 -12.5q62 0 98 79q28 63 28 136 q0 125 -85 125q-27 0 -64 -39q-29 -32 -52 -72z" />
<glyph unicode="&#xff;" horiz-adv-x="467" d="M73 -196q-25 0 -94 24l42 95q35 -20 68 -20q30 0 61 58l38 87l-135 425l109 30l88 -366l147 364l97 -25l-257 -554q-22 -47 -61 -79q-47 -39 -103 -39zM311 598q3 26 22 47q22 25 56 25q33 0 50 -25q15 -21 12 -47q-3 -27 -22 -48q-22 -24 -56 -24t-50 24q-15 20 -12 48z M102 598q3 27 21 47q22 25 57 25q32 0 49 -25q15 -21 12 -47q-3 -27 -22 -48q-22 -24 -55 -24q-34 0 -51 24q-14 20 -11 48z" />
<glyph unicode="&#x152;" horiz-adv-x="1028" d="M567 157q-113 -160 -266 -160q-116 0 -187 76q-74 77 -74 213q0 26 3 54q15 140 108 228.5t226 88.5q149 0 227 -147l14 129h379l-11 -105h-287l-15 -144h278l-11 -99h-278l-19 -184h287l-11 -107h-379zM160 299q0 -85 43 -143t109 -58q90 0 152 91q56 81 56 175 q0 85 -42 139.5t-113 54.5q-92 0 -152 -86q-53 -77 -53 -173z" />
<glyph unicode="&#x153;" horiz-adv-x="1033" d="M207 217q0 -61 25 -99q28 -42 80 -42q70 0 110 71q34 59 34 135q0 62 -24 99q-26 42 -75 42q-73 0 -115 -70q-35 -58 -35 -136zM717 68q70 0 134 80l54 -80q-95 -80 -204 -80q-80 0 -125 37q-32 27 -53 84q-77 -120 -216 -120q-125 0 -180 81q-40 58 -40 147q0 18 2 35 q14 128 105 200q76 60 169 60q59 0 110 -29q58 -32 85 -93q76 117 212 117q71 0 115 -41q47 -45 47 -124q0 -14 -1 -29l-8 -75h-295q-3 -33 -3 -44q0 -126 92 -126zM828 323q2 40 -14 70q-19 36 -59 36q-87 0 -105 -106h178z" />
<glyph unicode="&#x178;" horiz-adv-x="482" d="M272 0h-119l29 271l-134 350l113 33l94 -279l150 279l103 -33l-207 -350zM342 758q3 27 21 47q22 25 57 25q32 0 50 -25q15 -21 12 -47q-3 -27 -22 -48q-23 -24 -56 -24q-34 0 -51 24q-14 20 -11 48zM132 758q3 27 21 47q22 25 57 25q33 0 50 -25q15 -21 12 -47 q-3 -27 -22 -48q-22 -24 -56 -24q-33 0 -50 24q-15 20 -12 48z" />
<glyph unicode="&#x2c6;" horiz-adv-x="337" d="M25 521l9 88l149 106l131 -106l-9 -87l-134 77z" />
<glyph unicode="&#x2dc;" horiz-adv-x="375" d="M186 579q-32 23 -42 23q-25 0 -71 -47l-31 78q46 50 111 52q30 1 66 -26t47 -27q13 0 53 31l30 -76q-18 -16 -46.5 -27t-43.5 -11q-31 0 -73 30z" />
<glyph unicode="&#x2000;" horiz-adv-x="437" />
<glyph unicode="&#x2001;" horiz-adv-x="875" />
<glyph unicode="&#x2002;" horiz-adv-x="437" />
<glyph unicode="&#x2003;" horiz-adv-x="875" />
<glyph unicode="&#x2004;" horiz-adv-x="291" />
<glyph unicode="&#x2005;" horiz-adv-x="218" />
<glyph unicode="&#x2006;" horiz-adv-x="145" />
<glyph unicode="&#x2007;" horiz-adv-x="145" />
<glyph unicode="&#x2008;" horiz-adv-x="109" />
<glyph unicode="&#x2009;" horiz-adv-x="175" />
<glyph unicode="&#x200a;" horiz-adv-x="48" />
<glyph unicode="&#x2011;" horiz-adv-x="380" d="M55 360h280l-10 -93h-280z" />
<glyph unicode="&#x2013;" d="M34 363h432v-71h-432v71z" />
<glyph unicode="&#x2014;" horiz-adv-x="1000" d="M27 363h946v-71h-946v71z" />
<glyph unicode="&#x2018;" horiz-adv-x="138" d="M81 675l65 -3q-23 -41 -35 -93q-2 -10 -15 -86h-105q5 36 34 94q27 53 56 88z" />
<glyph unicode="&#x2019;" horiz-adv-x="138" d="M57 493l-65 13q24 41 36 93q2 10 14 86h105q-4 -36 -34 -99q-29 -59 -56 -93z" />
<glyph unicode="&#x201a;" horiz-adv-x="214" d="M57 -107l-65 13q24 41 36 93q2 10 14 86h105q-4 -36 -34 -99q-29 -59 -56 -93z" />
<glyph unicode="&#x201c;" horiz-adv-x="429" d="M331 675l65 -3q-23 -41 -35 -93q-2 -10 -15 -86h-105q5 36 34 94q27 53 56 88zM131 675l65 -3q-23 -41 -35 -93q-2 -10 -15 -86h-105q5 36 34 94q27 53 56 88z" />
<glyph unicode="&#x201d;" horiz-adv-x="429" d="M107 483l-65 13q24 41 36 93q2 10 14 86h105q-4 -36 -34 -99q-29 -59 -56 -93zM307 483l-65 13q24 41 36 93q2 10 14 86h105q-4 -36 -34 -99q-29 -59 -56 -93z" />
<glyph unicode="&#x201e;" horiz-adv-x="417" d="M107 -117l-65 13q24 41 36 93q2 10 14 86h105q-4 -36 -34 -99q-29 -59 -56 -93zM307 -117l-65 13q24 41 36 93q2 10 14 86h105q-4 -36 -34 -99q-29 -59 -56 -93z" />
<glyph unicode="&#x2022;" horiz-adv-x="282" d="M129 190q-38 0 -62 28.5t-19 72.5q5 43 35 71.5t68 28.5q37 0 61 -28.5t19 -71.5t-34.5 -72t-67.5 -29z" />
<glyph unicode="&#x2026;" horiz-adv-x="900" d="M603 53q4 42 34 67q27 22 62 22q36 0 58.5 -23.5t18.5 -65.5q-4 -41 -32 -65t-63 -24q-36 0 -59 24t-19 65zM364 53q4 42 34 67q27 22 62 22q36 0 58.5 -23.5t18.5 -65.5q-4 -41 -32 -65t-63 -24q-36 0 -59 24t-19 65zM125 53q4 42 34 67q27 22 62 22q36 0 58.5 -23.5 t18.5 -65.5q-4 -41 -32 -65t-63 -24q-36 0 -59 24t-19 65z" />
<glyph unicode="&#x202f;" horiz-adv-x="175" />
<glyph unicode="&#x2039;" horiz-adv-x="319" d="M297 126l-102 -4l-146 167l146 162l102 -4l-124 -161z" />
<glyph unicode="&#x203a;" horiz-adv-x="317" d="M30 126l123 160l-123 161l101 4l146 -162l-146 -167z" />
<glyph unicode="&#x205f;" horiz-adv-x="218" />
<glyph unicode="&#x2122;" horiz-adv-x="641" d="M174 315h-64v275h-95v52h248v-52h-89v-275zM555 514l-76 -199h-54l-77 201v-201h-60v329h78l89 -229l89 229h75v-329h-64v199z" />
</font>
</defs>
</svg>
